<?xml version="1.0" standalone="no"?>
<!DOCTYPE svg PUBLIC "-//W3C//DTD SVG 1.1//EN" "http://www.w3.org/Graphics/SVG/1.1/DTD/svg11.dtd" >
<svg xmlns="http://www.w3.org/2000/svg">
<metadata>Generated by IcoMoon</metadata>
<defs>
<font id="icomoon" horiz-adv-x="1024">
<font-face units-per-em="1024" ascent="960" descent="-64" />
<missing-glyph horiz-adv-x="1024" />
<glyph unicode="&#x20;" d="" horiz-adv-x="512" />
<glyph unicode="&#xe600;" d="M800 320c-123.712 0-224 100.288-224 224s100.288 224 224 224 224-100.288 224-224l1-32c0-247.424-200.576-448-448-448v128c85.472 0 165.832 33.288 226.272 93.728 11.632 11.64 22.256 24.024 31.832 37.024-11.44-1.808-23.16-2.752-35.104-2.752zM224 320c-123.712 0-224 100.288-224 224s100.288 224 224 224 224-100.288 224-224l1-32c0-247.424-200.576-448-448-448v128c85.472 0 165.832 33.288 226.272 93.728 11.632 11.64 22.256 24.024 31.832 37.024-11.44-1.808-23.16-2.752-35.104-2.752z" />
<glyph unicode="&#xe601;" d="M225 512c123.712 0 224-100.288 224-224s-100.288-224-224-224c-123.712 0-224 100.288-224 224l-1 32c0 247.424 200.576 448 448 448v-128c-85.472 0-165.832-33.288-226.272-93.728-11.632-11.64-22.256-24.016-31.832-37.016 11.44 1.8 23.16 2.744 35.104 2.744zM801 512c123.712 0 224-100.288 224-224s-100.288-224-224-224c-123.712 0-224 100.288-224 224l-1 32c0 247.424 200.576 448 448 448v-128c-85.472 0-165.832-33.288-226.272-93.728-11.632-11.64-22.256-24.016-31.832-37.016 11.44 1.8 23.16 2.744 35.104 2.744z" />
<glyph unicode="&#xe602;" d="M652.993-58.961l-506.961 506.961 506.961 506.999 44.548-44.548-462.414-462.462 462.414-462.414-44.548-44.548z" />
<glyph unicode="&#xe603;" d="M190.578 954.961l506.961-506.961-506.961-506.961-44.548 44.548 462.414 462.414-462.414 462.414z" />
<glyph unicode="&#xe604;" d="M838.118-53.295l18.902 18.902-482.392 482.392 482.392 482.392-18.902 18.902-501.295-501.295z" />
<glyph unicode="&#xe605;" d="M355.723 949.295l-18.902-18.902 482.392-482.392-482.392-482.392 18.902-18.902 501.295 501.295z" />
<glyph unicode="&#xe606;" d="M836.479 949.853l25.155-25.155-476.73-476.706 476.73-476.706-25.155-25.155-501.89 501.853z" />
<glyph unicode="&#xe607;" d="M359.707-53.89l-25.155 25.155 476.73 476.73-476.73 476.706 25.155 25.155 501.89-501.853-501.89-501.89z" />
<glyph unicode="&#xe608;" d="M1018.961 679.197l-506.961-506.961-506.961 506.961 44.607 44.548 462.348-462.414 462.414 462.414z" />
<glyph unicode="&#xe609;" d="M1031.699 482.624h-485.044v485.044h-69.288v-485.044h-485.044v-69.288h485.044v-485.044h69.288v485.044h485.044z" />
<glyph unicode="&#xe60a;" d="M1031.699 482.624h-1039.382v-69.288h1039.382z" />
<glyph unicode="&#xe60b;" d="M294.792 494.951h475.931v-20.736h-475.931v20.736zM294.792 335.519h475.931v-20.736h-475.931v20.736zM294.792 176.117h475.931v-20.736h-475.931v20.736zM931.501 655.555c0 2.697-0.643 5.354-2.633 7.339l-295.498 295.519c-1.989 1.989-4.647 2.633-7.339 2.633v0.395h-492.476v-985.406h798.36v679.515h-0.414zM636.417 926.044l260.096-260.121h-260.096v260.121zM154.298-3.231v943.936h461.393v-285.148c0-5.724 4.647-10.363 10.363-10.363h285.128v-648.414h-756.889z" />
<glyph unicode="&#xe60c;" d="M571.779 652.645l-5.26-18.099c31.18-9.049 59.854-26.035 82.895-49.132 36.668-36.654 56.882-85.403 56.882-137.246 0-51.865-20.189-100.598-56.882-137.246l-286.412-286.452c-75.695-75.675-198.837-75.675-274.531 0-75.675 75.713-75.675 198.858 0 274.554l107.577 107.555-13.331 13.331-107.577-107.555c-83.030-83.030-83.030-218.146 0-301.207 41.533-41.517 96.056-62.269 150.592-62.269 54.543 0 109.065 20.755 150.574 62.269l286.412 286.431c40.231 40.21 62.401 93.699 62.401 150.574 0 56.899-22.17 110.367-62.401 150.574-25.259 25.344-56.728 43.986-90.946 53.918zM948.858 884.858c-40.231 40.231-93.699 62.38-150.574 62.38s-110.367-22.153-150.592-62.38l-286.431-286.412c-83.044-83.044-83.044-218.165 0-301.207 25.344-25.344 56.805-43.964 90.984-53.903l5.26 18.12c-31.143 9.032-59.823 26.035-82.913 49.108-75.695 75.695-75.695 198.837 0 274.554l286.412 286.39c36.668 36.668 85.42 56.857 137.267 56.857s100.598-20.189 137.246-56.857c36.668-36.668 56.882-85.403 56.882-137.246s-20.189-100.579-56.882-137.246l-107.555-107.591 13.331-13.331 107.555 107.591c40.231 40.21 62.401 93.699 62.401 150.574s-22.153 110.386-62.38 150.592z" />
<glyph unicode="&#xe60d;" d="M969.416 1.694l-268.558 268.558c68.193 71.906 110.341 168.743 110.341 275.447 0 221.078-179.846 400.906-400.927 400.906-221.056 0-400.906-179.846-400.906-400.906s179.828-400.927 400.906-400.927c106.688 0 203.549 42.167 275.447 110.341l268.558-268.558 15.136 15.136zM30.807 545.695c0 209.262 170.237 379.499 379.499 379.499s379.52-170.263 379.52-379.499-170.263-379.52-379.52-379.52c-209.262 0-379.499 170.263-379.499 379.52z" />
<glyph unicode="&#xe60e;" d="M256.013 10.633v874.707l757.491-437.342-757.491-437.367zM275.468 851.615v-807.256l699.112 403.639-699.112 403.615z" />
<glyph unicode="&#xe60f;" d="M305.911 958.030l-65.207-65.207 444.833-444.833-444.833-444.833 65.207-65.207 510.030 510.030z" />
<glyph unicode="&#xe610;" d="M963.891 777.505l-590.089-590.089-313.707 313.707-45.985-45.985 359.688-359.688 636.067 636.067z" />
<glyph unicode="&#xe611;" d="M512 955.173c-279.704 0-507.173-227.474-507.173-507.173 0-279.577 227.474-507.173 507.173-507.173 279.577 0 507.173 227.577 507.173 507.173 0 279.704-227.577 507.173-507.173 507.173zM512 33.053c-228.764 0-414.947 186.195-414.947 414.947s186.195 414.947 414.947 414.947 414.947-186.195 414.947-414.947-186.195-414.947-414.947-414.947z" />
<glyph unicode="&#xe612;" d="M807.359 484.894h-812.191v-73.83h812.191z" />
<glyph unicode="&#xe613;" d="M512 896c282.768 0 512-186.248 512-416s-229.232-416-512-416c-27.16 0-53.808 1.736-79.824 5.040-109.976-109.976-241.248-129.696-368.176-132.6v26.92c68.536 33.576 128 94.744 128 164.632 0 9.752-0.76 19.328-2.16 28.696-115.8 76.264-189.84 192.752-189.84 323.304 0 229.752 229.232 416 512 416z" />
<glyph unicode="&#xe614;" d="M1019.124-25.642l-269.266 269.266c67.737 75.645 109.358 175.104 109.358 284.367 0 235.513-191.628 427.1-427.1 427.1-235.563 0-427.165-191.595-427.165-427.1 0-235.513 191.628-427.1 427.165-427.1 109.269 0 208.727 41.623 284.332 109.305l269.266-269.266 33.415 33.415zM52.227 527.958c0 209.436 170.389 379.768 379.811 379.768 209.436 0 379.768-170.389 379.768-379.768s-170.389-379.768-379.768-379.768c-209.436 0-379.811 170.389-379.811 379.768z" />
<glyph unicode="&#xe616;" d="M320 576h128v-128h-128zM512 576h128v-128h-128zM704 576h128v-128h-128zM128 192h128v-128h-128zM320 192h128v-128h-128zM512 192h128v-128h-128zM320 384h128v-128h-128zM512 384h128v-128h-128zM704 384h128v-128h-128zM128 384h128v-128h-128zM832 960v-64h-128v64h-448v-64h-128v64h-128v-1024h960v1024h-128zM896 0h-832v704h832v-704z" />
</font>
</defs>
</svg>
