<?xml version="1.0" standalone="no"?>
<!DOCTYPE svg PUBLIC "-//W3C//DTD SVG 1.1//EN" "http://www.w3.org/Graphics/SVG/1.1/DTD/svg11.dtd" >
<svg xmlns="http://www.w3.org/2000/svg">
<metadata></metadata>
<defs>
<font id="suprathindemiserif" horiz-adv-x="428" >
<font-face units-per-em="2048" ascent="1536" descent="-512" />
<missing-glyph horiz-adv-x="522" />
<glyph unicode="ff" horiz-adv-x="1165" d="M43 946v64h178v71q0 142 12 187q54 188 297 188q110 0 197 -41v-219h-70v172q-73 23 -149 23q-171 0 -205 -125q-16 -63 -16 -226v-30h512v135q0 140 12 184q55 189 297 189q110 0 197 -41v-209h-66v162q-73 22 -154 22q-170 0 -204 -125q-17 -67 -17 -221v-96h281v-64 h-281v-946h-65v946h-512v-946h-66v946h-178z" />
<glyph unicode="fi" horiz-adv-x="989" d="M43 946v64h178v69q0 140 12 185q54 186 297 186q101 0 197 -39v-76q-93 49 -219 49q-172 0 -205 -124q-16 -61 -16 -220v-30h575v-1010h-65v946h-510v-946h-66v946h-178zM756 1303q0 29 18 48t49 19q28 0 47 -20t19 -47q0 -29 -19.5 -47.5t-46.5 -18.5q-31 0 -49 18.5 t-18 47.5z" />
<glyph unicode="fl" horiz-adv-x="1032" d="M43 946v64h178v135q0 140 12 184q55 189 297 189q149 0 332 -86v-1293q0 -45 8 -61q15 -27 58 -27q40 0 92 25v-70q-57 -26 -102 -26q-74 0 -105 49q-16 27 -16 108v1254q-44 21 -133.5 41t-155.5 20q-171 0 -205 -125q-16 -63 -16 -221v-96h280v-64h-280v-946h-66v946 h-178z" />
<glyph unicode="ffi" horiz-adv-x="1603" d="M43 946v64h178v71q0 142 12 187q54 188 297 188q111 0 195 -41v-219h-70v174q-67 21 -147 21q-171 0 -205 -125q-16 -63 -16 -226v-30h512v135q0 140 12 184q55 189 297 189q110 0 197 -41v-76q-97 51 -220 51q-88 0 -139 -33.5t-65 -91.5q-15 -67 -15 -221v-96h578 v-1010h-68v946h-510v-946h-67v946h-512v-946h-66v946h-178zM1333 1307q0 30 19 48.5t51 18.5q29 0 47 -19.5t18 -47.5q0 -29 -19 -47.5t-46 -18.5q-31 0 -50.5 18.5t-19.5 47.5z" />
<glyph unicode="ffl" horiz-adv-x="1613" d="M43 946v64h178v71q0 142 12 187q54 188 297 188q110 0 197 -41v-219h-70v172q-73 23 -149 23q-171 0 -205 -125q-16 -63 -16 -226v-30h512v135q0 140 12 184q55 189 293 189q86 0 187.5 -28t152.5 -52v-1299q0 -45 8 -61q15 -27 57 -27q41 0 93 25v-70q-57 -26 -103 -26 q-75 0 -106 49q-17 28 -17 108v1260q-163 55 -295 55q-85 0 -135.5 -33.5t-64.5 -91.5q-15 -67 -15 -221v-96h332v-64h-332v-946h-67v946h-512v-946h-66v946h-178z" />
<glyph unicode="Th" horiz-adv-x="2076" d="M8 1124v238h1075v147h66v-712q46 96 154 163.5t247 67.5q241 0 334 -184q35 -71 35 -246v-598h-66v592q0 163 -41 239q-70 132 -256 132q-100 0 -201.5 -54t-158.5 -151q-47 -81 -47 -189v-569h-66v1317l-270 -21h-264v-1296h-72v1296h-399v-172h-70z" />
<glyph unicode="fb" horiz-adv-x="1763" d="M43 946v64h178v135q0 128 12 172q27 94 104.5 147.5t201.5 53.5q60 0 174 -26t153 -42v-635q67 103 172 157t211 54q208 0 320 -133t112 -369q0 -114 -29 -206.5t-78.5 -154.5t-117 -104t-143 -60.5t-158.5 -18.5q-74 0 -146 12.5t-107.5 24t-100.5 34.5v1344 q-39 16 -132.5 36.5t-152.5 20.5q-91 0 -144 -37t-69 -100q-16 -61 -16 -209v-96h336v-64h-336v-946h-66v946h-178zM866 100q133 -55 293 -55q95 0 176 29.5t144 87t99 152t36 216.5q0 195 -99.5 314t-267.5 119q-99 0 -185 -50.5t-142 -134.5q-24 -38 -39 -93t-15 -103 v-482z" />
<glyph unicode="ffb" horiz-adv-x="2338" d="M43 946v64h178v71q0 131 10 174q25 101 100 151t214 50q107 0 194 -41v-219h-69v172q-73 23 -150 23q-183 0 -217 -136q-16 -61 -16 -215v-30h514v135q0 141 10 184q48 189 293 189q49 0 178 -17t160 -28v-658q67 103 172 157t211 54q208 0 320 -133t112 -369 q0 -141 -44 -249t-119.5 -170.5t-167.5 -93.5t-197 -31q-73 0 -144.5 12.5t-107.5 24t-101 34.5v1364q-30 11 -135.5 24t-144.5 13q-91 0 -144 -37t-69 -100q-17 -65 -17 -209v-96h336v-64h-336v-946h-65v946h-514v-946h-66v946h-178zM1444 100q64 -27 128.5 -41t162.5 -14 q76 0 142.5 18t124 56.5t99 95t65 137t23.5 178.5q0 195 -99 314t-267 119q-100 0 -186 -50.5t-142 -134.5q-24 -37 -37.5 -91.5t-13.5 -104.5v-482z" />
<glyph unicode="fh" horiz-adv-x="1794" d="M43 946v64h178v135q0 128 12 172q27 94 104.5 147.5t201.5 53.5q63 0 178.5 -25.5t148.5 -42.5v-653q48 96 156 163.5t246 67.5q241 0 334 -184q34 -69 34 -246v-598h-65v592q0 163 -41 239q-70 132 -256 132q-100 0 -202 -54t-159 -151q-47 -81 -47 -189v-569h-65v1397 q-44 16 -136 35.5t-149 19.5q-91 0 -144 -37t-69 -100q-16 -61 -16 -209v-96h336v-64h-336v-946h-66v946h-178z" />
<glyph unicode="ffh" horiz-adv-x="2371" d="M43 946v64h178v69q0 133 10 176q25 101 100 151t214 50q107 0 194 -41v-219h-69v172q-73 23 -150 23q-183 0 -217 -136q-16 -61 -16 -215v-30h514v135q0 141 10 184q48 189 293 189q47 0 177 -17.5t163 -27.5v-676q48 98 153.5 164.5t247.5 66.5q241 0 334 -184 q35 -71 35 -246v-598h-66v592q0 162 -39 239q-70 132 -258 132q-100 0 -201.5 -54t-158.5 -151q-47 -81 -47 -189v-569h-68v1415q-30 11 -135.5 24t-144.5 13q-91 0 -144 -37t-69 -100q-17 -65 -17 -209v-96h336v-64h-336v-946h-65v946h-514v-946h-66v946h-178z" />
<glyph unicode="fj" horiz-adv-x="1007" d="M43 946v64h178v135q0 140 12 184q55 189 297 189q34 0 67.5 -4t55.5 -9t50 -15t38.5 -14.5t35 -16.5t26.5 -13v-76q-49 26 -81.5 40.5t-90.5 28t-123 13.5q-171 0 -205 -125q-16 -63 -16 -221v-96h579v-1123q0 -117 -6 -166q-14 -116 -76 -181.5t-168 -65.5q-8 0 -27 2 t-28 2v65q10 0 32 -2t34 -2q72 0 112 53.5t52 137.5q8 63 8 184v1032h-512v-946h-66v946h-178zM754 1282q0 29 18 48.5t49 19.5q28 0 47 -20.5t19 -47.5q0 -28 -19.5 -46.5t-46.5 -18.5q-31 0 -49 18t-18 47z" />
<glyph unicode="ffj" horiz-adv-x="1587" d="M43 946v64h178v71q0 142 12 187q54 188 297 188q110 0 197 -41v-219h-70v172q-73 23 -149 23q-171 0 -205 -125q-16 -63 -16 -226v-30h514v135q0 140 12 184q55 189 297 189q34 0 67 -4t55.5 -9t50 -15t38.5 -15t34.5 -16.5t26.5 -12.5v-76q-49 26 -81.5 40.5t-90.5 28 t-123 13.5q-170 0 -204 -125q-17 -67 -17 -221v-96h580v-1123q0 -117 -6 -166q-14 -116 -75.5 -181.5t-168.5 -65.5q-8 0 -27 2t-28 2v65q10 0 31.5 -2t33.5 -2q72 0 112 53.5t52 137.5q8 63 8 184v1032h-512v-946h-65v946h-514v-946h-66v946h-178zM1327 1262q0 29 18.5 48 t49.5 19q28 0 46.5 -20t18.5 -47q0 -29 -19 -47.5t-46 -18.5q-31 0 -49.5 18.5t-18.5 47.5z" />
<glyph unicode="fk" horiz-adv-x="1566" d="M43 946v64h178v135q0 128 12 172q27 94 104.5 147.5t201.5 53.5q74 0 180.5 -26t146.5 -44v-1448h-67v1399q-47 15 -136.5 34t-146.5 19q-91 0 -144 -37t-69 -100q-16 -61 -16 -209v-96h336v-64h-336v-946h-66v946h-178zM866 535v14l6 -8zM872 541l500 469h109l-502 -473 l577 -537h-106z" />
<glyph unicode="ffk" horiz-adv-x="2142" d="M43 946v64h178v71q0 130 12 174q27 94 105.5 147.5t206.5 53.5q107 0 194 -41v-219h-69v172q-73 23 -150 23q-182 0 -217 -138q-16 -63 -16 -211v-32h514v135q0 141 10 184q48 189 293 189q64 0 187 -18t153 -30v-1470h-68v1417q-32 10 -131 22.5t-149 12.5 q-91 0 -144 -37t-69 -100q-17 -65 -17 -209v-96h336l-90 -64h-246v-946h-65v946h-514v-946h-66v946h-178zM1444 537v10l4 -6zM1448 541l500 469h108l-502 -473l578 -537h-107z" />
<glyph unicode="ft" horiz-adv-x="1275" d="M43 946v64h178v135q0 140 12 184q55 189 297 189q114 0 209 -43v-220h-69v177q-61 20 -162 20q-171 0 -205 -125q-16 -63 -16 -221v-96h514v258l65 26v-284h342v-64h-342v-569q0 -137 13 -197q13 -63 57 -101t119 -38q110 0 209 51v-69q-36 -20 -93.5 -34t-113.5 -14 q-105 0 -170.5 55t-79.5 150q-6 49 -6 168v598h-514v-946h-66v946h-178z" />
<glyph unicode="&#x162;h" horiz-adv-x="2076" d="M6 1096v264h2v2h1075v147h66v-712q46 96 154 163.5t247 67.5q241 0 334 -184q35 -71 35 -246v-598h-66v592q0 163 -41 239q-70 132 -256 132q-100 0 -201.5 -54t-158.5 -151q-47 -81 -47 -189v-569h-66v1317l-270 -21h-264v-1296h-6l-31 -127q16 4 45 4q70 0 118 -38 t48 -107q0 -75 -47 -122.5t-150 -47.5q-84 0 -137 35v73q25 -19 65 -30t74 -11q119 0 119 99q0 37 -30.5 59.5t-92.5 22.5q-36 0 -94 -15l49 205h-2v1296h-403v-200h-68z" />
<glyph unicode="&#x21a;h" horiz-adv-x="2076" d="M8 1114v248h1075v147h66v-712q46 96 154 163.5t247 67.5q241 0 334 -184q35 -71 35 -246v-598h-66v592q0 163 -41 239q-70 132 -256 132q-100 0 -201.5 -54t-158.5 -151q-47 -81 -47 -189v-569h-66v1317l-270 -21h-264v-1296h-72v1296h-401v-182h-68zM393 -475 q68 189 76 340h84q-13 -85 -42 -177.5t-60 -156.5z" />
<glyph unicode="&#x164;h" horiz-adv-x="2076" d="M8 1112v250h1075v147h66v-712q46 96 154 163.5t247 67.5q241 0 334 -184q35 -71 35 -246v-598h-66v592q0 163 -41 239q-70 132 -256 132q-100 0 -201.5 -54t-158.5 -151q-47 -81 -47 -189v-569h-66v1317l-270 -21h-264v-1296h-72v1296h-401v-184h-68zM229 1741l54 16 q128 -61 233 -211q103 147 227 211l56 -16q-89 -70 -145.5 -136.5t-100.5 -158.5h-78q-44 92 -100.5 158.5t-145.5 136.5z" />
<glyph unicode="fft" horiz-adv-x="1855" d="M43 946v64h178v71q0 142 12 187q54 188 297 188q122 0 209 -41v-219h-69v172q-70 23 -162 23q-171 0 -205 -125q-16 -63 -16 -226v-30h514v135q0 140 12 184q55 189 297 189q131 0 272 -72v-76q-152 82 -295 82q-170 0 -204 -125q-17 -67 -17 -221v-96h514v258l66 26 v-284h342v-64h-342v-569q0 -142 12 -197q13 -63 57 -101t119 -38q110 0 209 51v-69q-36 -20 -93.5 -34t-113.5 -14q-105 0 -170.5 55t-79.5 150q-6 49 -6 168v598h-514v-946h-65v946h-514v-946h-66v946h-178z" />
<glyph unicode="&#xd;" horiz-adv-x="522" />
<glyph unicode=" "  horiz-adv-x="522" />
<glyph unicode="&#x09;" horiz-adv-x="522" />
<glyph unicode="&#xa0;" horiz-adv-x="522" />
<glyph unicode="!" horiz-adv-x="442" d="M154 49q0 26 19.5 46t45.5 20t46 -20t20 -46t-20 -45.5t-46 -19.5t-45.5 19.5t-19.5 45.5zM172 1362h92l-18 -1055h-58z" />
<glyph unicode="&#x22;" horiz-adv-x="423" d="M68 1087v275h67v-272l-22 -261h-25zM256 1087v275h68v-272l-21 -261h-24z" />
<glyph unicode="#" horiz-adv-x="1423" d="M139 426l21 68h221l121 370h-219l20 68h219l137 428h68l-135 -428h328l137 428h69l-137 -428h234l-21 -68h-233l-119 -370h229l-20 -68h-232l-133 -426h-71l135 426h-328l-133 -426h-72l135 426h-221zM453 494h327l119 370h-330z" />
<glyph unicode="$" horiz-adv-x="1011" d="M74 100v90q193 -143 438 -143q77 0 142.5 18t116.5 55t79.5 97.5t28.5 140.5q0 105 -69 169.5t-230 129.5l-101 39q-44 17 -68 27t-60 26t-56 28t-47.5 30.5t-42 36t-31.5 41t-25.5 49.5t-14 58t-5.5 69q0 135 96 223t258 100v193h80v-191q173 -7 334 -86v-167h-66v118 q-136 66 -294 66q-151 0 -242.5 -63.5t-91.5 -192.5q0 -38 9 -70.5t22 -57t38 -47t46 -37t58 -31.5t61.5 -26.5t68.5 -25.5l123 -47q78 -30 133 -60.5t101 -73t68.5 -99.5t22.5 -130q0 -92 -34 -163t-92 -114t-124 -66.5t-141 -30.5v-215h-80v210q-222 5 -409 123z" />
<glyph unicode="%" horiz-adv-x="1480" d="M51 831q0 171 84 283.5t215 112.5q143 0 222 -110t79 -286q0 -173 -80.5 -283t-222.5 -110t-219.5 109.5t-77.5 283.5zM104 831q0 -60 13.5 -118t41.5 -109.5t78 -83t115 -31.5t114.5 31.5t77 83t41 109t13.5 118.5q0 63 -13 121t-40.5 110t-77 83t-115.5 31 q-64 0 -113.5 -31.5t-78 -83.5t-42.5 -110.5t-14 -119.5zM213 -61l991 1345h62l-990 -1345h-63zM829 381q0 171 84 283t215 112q144 0 223 -109.5t79 -285.5q0 -173 -81 -283t-223 -110t-219.5 109.5t-77.5 283.5zM883 381q0 -61 13.5 -118.5t41 -109t77.5 -83t115 -31.5 t114.5 31.5t77 83t41 109t13.5 118.5q0 63 -13 121t-40.5 109.5t-77 82.5t-115.5 31q-51 0 -93.5 -21t-70.5 -55.5t-47 -80t-27.5 -92.5t-8.5 -95z" />
<glyph unicode="&#x26;" horiz-adv-x="1497" d="M82 307q0 53 15.5 100t48.5 87.5t68 72.5t91 65.5t99 56t110 54.5q-22 23 -58 59t-57.5 58t-48.5 55t-42 60.5t-25.5 63t-10.5 73.5q0 113 102 188.5t269 75.5q157 0 259 -76t102 -188q0 -108 -100.5 -208.5t-266.5 -180.5l367 -397l235 350h236v-66h-201l-223 -331 l264 -279h-105l-202 219q-101 -120 -224 -179.5t-280 -59.5q-114 0 -210 40.5t-154 116t-58 170.5zM152 303q0 -77 57.5 -138.5t142 -92.5t174.5 -31q115 0 226 57t206 170l-391 422q-78 -37 -133 -66.5t-112 -67.5t-91.5 -75t-56.5 -82.5t-22 -95.5zM346 1112q0 -37 18 -77 t59 -89t72 -80.5t91 -89.5q344 159 344 338q0 85 -76.5 140t-212.5 55q-146 0 -220.5 -53t-74.5 -144z" />
<glyph unicode="'" horiz-adv-x="239" d="M68 1087v275h67v-272l-22 -261h-25z" />
<glyph unicode="(" horiz-adv-x="634" d="M70 571q0 253 74 497.5t214 440.5h52q-124 -222 -194.5 -464.5t-70.5 -479.5q0 -224 71.5 -460.5t189.5 -454.5h-50q-136 204 -211 439.5t-75 481.5z" />
<glyph unicode=")" horiz-adv-x="634" d="M225 1509h54q139 -197 212.5 -439.5t73.5 -494.5q0 -247 -74 -484.5t-210 -440.5h-52q119 218 191 456.5t72 462.5q0 462 -267 940z" />
<glyph unicode="*" horiz-adv-x="755" d="M115 1147q0 22 17.5 38.5t41.5 16.5t53.5 -12t75 -38t53.5 -30q-13 36 -23.5 98.5t-10.5 86.5q0 23 16 39t41 16q23 0 39 -16t16 -41q0 -24 -10 -87t-25 -98q5 3 27 15l33 18t32 16.5t35 16t30 10t28 4.5q21 0 39 -16.5t18 -40.5q0 -20 -11.5 -36t-31.5 -20 q-36 -12 -178 -12q24 -18 50.5 -41.5t54.5 -58.5t28 -57q0 -21 -16.5 -39.5t-40.5 -18.5q-10 0 -19.5 4.5t-18.5 14t-16.5 19.5t-15.5 25.5t-13.5 26.5t-12.5 29t-10 26t-8.5 24t-6.5 18q-5 -24 -21 -64t-43.5 -80.5t-52.5 -40.5q-23 0 -41 15.5t-18 40.5q0 18 18 43.5 t37 43.5t48 42.5t34 29.5h-38t-59.5 2t-56.5 8t-49.5 21.5t-17.5 38.5z" />
<glyph unicode="+" horiz-adv-x="915" d="M92 475v66h334v323h68v-323h329v-66h-329v-342h-68v342h-334z" />
<glyph unicode="," horiz-adv-x="417" d="M23 -276q63 89 106 221t43 254l92 -6q-8 -146 -62 -276t-124 -218z" />
<glyph unicode="-" horiz-adv-x="622" d="M92 455v75h440v-75h-440z" />
<glyph unicode="." horiz-adv-x="417" d="M139 53q0 28 21 49t49 21t49 -21t21 -49q0 -27 -21 -47t-49 -20t-49 20t-21 47z" />
<glyph unicode="/" horiz-adv-x="638" d="M-4 -201l577 1637h72l-575 -1637h-74z" />
<glyph unicode="0" horiz-adv-x="1054" d="M82 606q0 177 57.5 321t160.5 226t232 82q108 0 193 -47.5t138.5 -133t81.5 -199t28 -249.5q0 -180 -50.5 -321.5t-154.5 -225.5t-246 -84q-106 0 -190.5 48.5t-138.5 134t-82.5 199.5t-28.5 249zM158 606q0 -80 11.5 -155.5t39 -150t68.5 -129.5t105.5 -89.5 t145.5 -34.5q100 0 174.5 51t115.5 135.5t60 178t19 194.5q0 83 -11 159t-37.5 150t-67.5 128t-105.5 87t-145.5 33q-79 0 -143 -33.5t-106 -88.5t-70.5 -128.5t-40.5 -150t-12 -156.5z" />
<glyph unicode="1" horiz-adv-x="1054" d="M272 0v72h283v977q-16 -29 -82.5 -75t-124.5 -77l-59 -31v78q8 5 22.5 13.5t56 36.5t80 59t86 78.5t82.5 95.5h7v-1155h274v-72h-625z" />
<glyph unicode="2" horiz-adv-x="1054" d="M84 0v47q96 89 187.5 173t146 133.5t104.5 95.5t76.5 70.5t49.5 46t34.5 33.5t21 22t19.5 22q115 138 115 246q0 63 -23 113t-58 80t-80 50t-85 27.5t-78 7.5q-134 0 -272 -67v-133h-62v168q50 34 140 65t186 31q74 0 141.5 -19t127 -58t95 -108t35.5 -159 q0 -82 -36.5 -159t-92.5 -138q-54 -57 -565 -518q120 6 690 6v-78h-817z" />
<glyph unicode="3" horiz-adv-x="1054" d="M102 55v62q193 -74 363 -74q127 0 214 77t87 220q0 93 -54 158t-133 90.5t-167 17.5v74q143 -1 231 71t88 173q0 61 -25 109t-66.5 76.5t-91.5 43t-104 14.5q-109 0 -254 -49v-131h-63v168q171 76 319 76q63 0 121.5 -15.5t112.5 -49.5t86.5 -98t32.5 -150 q0 -104 -63.5 -177t-160.5 -92l9 -4q112 -24 178.5 -107.5t66.5 -207.5q0 -79 -25 -142t-63 -101t-88 -63t-95 -34.5t-89 -9.5q-200 0 -367 75z" />
<glyph unicode="4" horiz-adv-x="1054" d="M109 301v31l618 889h86q-528 -757 -596 -848q83 6 518 6v391l74 121v-512h162v-78h-162v-301h-72v301h-628z" />
<glyph unicode="5" horiz-adv-x="1054" d="M158 49v168h65v-119q147 -55 285 -55q38 0 82 9t97 34t95 63t70.5 103.5t28.5 148.5q0 41 -9 80.5t-32 81.5t-58 73.5t-92.5 52t-130.5 20.5q-177 0 -369 -129l-16 14l16 627h650l-37 -72h-541q0 -13 -1 -34t-2.5 -79t-3.5 -109t-3.5 -103t-2.5 -83t-1 -30q63 35 150 53 t151 18q191 0 293 -106.5t102 -267.5q0 -202 -126.5 -315t-321.5 -113q-193 0 -338 69z" />
<glyph unicode="6" horiz-adv-x="1054" d="M102 567q0 105 21.5 202t65 180t105 144.5t146 96.5t183.5 35q150 0 299 -68v-168h-66v125q-119 45 -235 45q-100 0 -178.5 -37t-125.5 -92t-80 -131.5t-47 -143t-20 -139.5q0 -77 4 -116q33 112 152.5 184t253.5 72q113 0 209 -44t157.5 -133.5t61.5 -207.5 q0 -179 -128.5 -285t-320.5 -106q-124 0 -218.5 56.5t-145.5 145.5q-93 160 -93 385zM213 369q0 -97 56.5 -174t136 -114.5t161.5 -37.5q176 0 274.5 93t98.5 233q0 139 -91.5 226t-260.5 87q-83 0 -155.5 -28t-119.5 -73.5t-73.5 -100.5t-26.5 -111z" />
<glyph unicode="7" horiz-adv-x="1054" d="M94 1053v168h844v-17q-130 -149 -231 -369t-152.5 -437.5t-52.5 -397.5h-72q0 271 107 594.5t276 560.5q-117 -6 -653 -6v-96h-66z" />
<glyph unicode="8" horiz-adv-x="1054" d="M125 334q0 98 56 177.5t159 125.5q-90 46 -139 115t-49 153q0 139 102 232.5t272 93.5t274.5 -91.5t104.5 -226.5q0 -169 -184 -276q102 -44 156.5 -121t54.5 -176q0 -154 -109.5 -257t-292.5 -103q-182 0 -293.5 103t-111.5 251zM195 330q0 -121 93 -204t242 -83 q151 0 241.5 82.5t90.5 212.5q0 114 -98.5 190t-237.5 76q-137 0 -234 -80t-97 -194zM221 915q0 -110 85.5 -179.5t223.5 -69.5q139 0 222.5 71t83.5 185q0 109 -85 175t-225 66q-139 0 -222 -68.5t-83 -179.5z" />
<glyph unicode="9" horiz-adv-x="1054" d="M72 831q0 121 61.5 212t160 136.5t218.5 45.5q126 0 220.5 -52.5t150.5 -144.5q94 -155 94 -391q0 -184 -61.5 -332.5t-181 -236.5t-277.5 -88q-70 0 -125.5 8t-99.5 25.5t-66 29t-60 35.5v168h66v-133q126 -68 287 -68q168 0 273 101.5t153 273.5q37 132 18 291 q-23 -80 -87 -141t-146.5 -91t-169.5 -30q-113 0 -209 44t-157.5 133t-61.5 205zM139 836q0 -62 20.5 -117t61.5 -100t111 -71t160 -26q86 0 159 28.5t118.5 74.5t71 101t25.5 110q0 63 -23 121t-66.5 104t-113.5 73t-157 27q-172 0 -269.5 -95t-97.5 -230z" />
<glyph unicode=":" horiz-adv-x="458" d="M180 55q0 28 21 49t49 21t48.5 -21t20.5 -49t-20.5 -48.5t-48.5 -20.5t-49 20.5t-21 48.5zM180 918q0 28 21 48.5t49 20.5t48.5 -20.5t20.5 -48.5t-20.5 -49t-48.5 -21t-49 21t-21 49z" />
<glyph unicode=";" horiz-adv-x="458" d="M63 -276q63 89 106.5 221.5t43.5 253.5l92 -6q-8 -146 -62 -276t-124 -218zM178 918q0 28 21 48.5t49 20.5t48.5 -20.5t20.5 -48.5t-20.5 -49t-48.5 -21t-49 21t-21 49z" />
<glyph unicode="&#x3c;" horiz-adv-x="946" d="M90 526v2l2 -2h-2zM92 526l764 400v-68l-631 -336l631 -329v-66z" />
<glyph unicode="=" horiz-adv-x="980" d="M66 360v66h849v-66h-849zM66 764v67h849v-67h-849z" />
<glyph unicode="&#x3e;" horiz-adv-x="946" d="M90 127v66l631 329l-631 336v68l764 -400zM854 526l2 2v-2h-2z" />
<glyph unicode="?" horiz-adv-x="638" d="M102 1167v168q123 47 209 47q134 0 205.5 -72.5t71.5 -203.5q0 -30 -12 -65.5t-27 -64.5t-42.5 -67t-45 -60t-48.5 -58.5t-40 -47.5q-10 -12 -33.5 -40t-30.5 -37t-22.5 -30t-20.5 -32t-12.5 -29.5t-9.5 -36t-2 -38.5q0 -25 7.5 -101.5t10.5 -93.5h-61q-21 189 -21 191 q0 35 6.5 64t23.5 58.5t30 48.5t43.5 57t46.5 60q2 3 19.5 25t27.5 35t29.5 39.5t32 45.5t28.5 46.5t25 49t15.5 45.5t6.5 44q0 195 -197 195q-59 0 -147 -27v-115h-66zM174 49q0 26 20 46t48 20q26 0 45.5 -20t19.5 -46t-19.5 -45.5t-45.5 -19.5q-28 0 -48 19.5t-20 45.5z " />
<glyph unicode="@" horiz-adv-x="1961" d="M170 549q0 166 64 317t172 261t258 175.5t315 65.5q229 0 416.5 -108.5t293 -295.5t105.5 -413q0 -83 -14 -163t-44 -153.5t-73 -129t-106 -88.5t-138 -33q-22 0 -48 6t-59 21.5t-54.5 51.5t-20.5 87q-41 -58 -146 -114t-219 -56q-154 0 -238.5 80.5t-84.5 199.5 q0 168 192 252q178 79 500 82q0 77 -0.5 110.5t-4 71t-11.5 62.5q-19 59 -73.5 92t-139.5 33q-157 0 -316 -78v-129h-65v168q185 106 370 106q148 0 216 -55t83 -154q9 -69 9 -190v-467q0 -51 25 -83t75 -32q68 0 123.5 34t90 86.5t57.5 121.5t32.5 134.5t9.5 129.5 q0 154 -56.5 291.5t-154.5 236.5t-237 157t-297 58q-101 0 -197 -27t-177.5 -75t-149.5 -117t-116 -150.5t-74.5 -178t-26.5 -197.5q0 -315 229 -553h-86q-99 111 -154 252.5t-55 296.5zM623 258q0 -46 14 -82t37 -58.5t54.5 -37.5t64.5 -21t69 -6q115 0 202 46.5t144 111.5 q33 39 33 135v180q-145 0 -279.5 -22t-209.5 -62q-67 -35 -98 -77t-31 -107z" />
<glyph unicode="A" horiz-adv-x="1236" d="M18 0l539 1296h-162v66h250l574 -1362h-82l-203 485h-637l-203 -485h-76zM326 551h575q-245 605 -287 717q-1 -2 -24 -61t-95.5 -240t-168.5 -416z" />
<glyph unicode="B" horiz-adv-x="1196" d="M0 1296v66l549 6q148 0 228.5 -24.5t137.5 -75.5q55 -51 81 -118.5t26 -135.5q0 -33 -10 -72.5t-32 -87t-67.5 -88t-107.5 -59.5q136 -22 216.5 -108.5t80.5 -240.5q0 -94 -42 -169t-110 -113q-134 -76 -358 -76h-416v1296h-176zM248 70h321q229 0 336 65q119 75 119 223 q0 95 -55 171t-150 106q-95 29 -254 29h-317v-594zM248 733h325q61 0 131 11.5t101 31.5q137 83 137 246q0 126 -94.5 201t-298.5 75l-301 -6v-559z" />
<glyph unicode="C" horiz-adv-x="1341" d="M90 682q0 158 56 292t151.5 223.5t221 139t263.5 49.5q248 0 463 -102v-250h-65v199q-181 84 -404 84q-128 0 -240.5 -45.5t-195 -127t-130.5 -202t-48 -262.5q0 -132 42.5 -247.5t119.5 -202t194 -136t258 -49.5q154 0 289 45.5t205 93.5v-86q-219 -123 -502 -123 q-138 0 -252.5 41t-192 109.5t-131 160t-78 191.5t-24.5 205z" />
<glyph unicode="D" horiz-adv-x="1431" d="M0 1296v66l616 6q251 0 420 -88q307 -167 307 -592q0 -134 -46 -260.5t-146.5 -232.5t-239.5 -152q-58 -20 -163.5 -31.5t-186.5 -11.5h-385v1296h-176zM248 66h305q75 0 187 13.5t169 33.5q166 65 261.5 221.5t95.5 349.5q0 300 -169 459.5t-479 159.5q-144 0 -370 -7 v-1230z" />
<glyph unicode="E" horiz-adv-x="1021" d="M0 1296v66h895v-66h-647v-559h612v-67h-612v-604h684v-66h-756v1296h-176z" />
<glyph unicode="F" horiz-adv-x="927" d="M0 1296v66h887v-250h-66v184h-571v-557h569v-65h-569v-674h-74v1296h-176z" />
<glyph unicode="G" horiz-adv-x="1386" d="M88 682q0 159 55.5 293t150 223t218.5 138.5t262 49.5q258 0 465 -102v-250h-65v201q-186 82 -406 82q-127 0 -238.5 -45.5t-193 -127.5t-129 -202t-47.5 -262q0 -131 42.5 -246.5t120 -202t194.5 -136.5t259 -50q207 0 412 96v408h-387v65h461v-514q-51 -24 -81 -37 t-99 -38t-142.5 -37.5t-148.5 -12.5q-145 0 -264.5 41t-199.5 109.5t-135 160.5t-79.5 191t-24.5 205z" />
<glyph unicode="H" horiz-adv-x="1431" d="M0 1296v66h248v-631h936v631h71v-1362h-71v666h-936v-666h-72v1296h-176z" />
<glyph unicode="I" horiz-adv-x="425" d="M0 1296v66h250v-1362h-74v1296h-176z" />
<glyph unicode="J" horiz-adv-x="768" d="M66 4v250h65v-197q57 -14 131 -14q81 0 141.5 38t85.5 103q31 80 31 211v901h-438v66h510v-956q0 -151 -35 -232q-35 -89 -114.5 -143t-186.5 -54q-122 0 -190 27z" />
<glyph unicode="K" horiz-adv-x="1060" d="M0 1296v66h250v-647l647 647h107l-656 -647l713 -715h-117l-694 702v-702h-70v1296h-180z" />
<glyph unicode="L" horiz-adv-x="972" d="M0 1296v66h250v-1296h704v-66h-774v1296h-180z" />
<glyph unicode="M" horiz-adv-x="1574" d="M0 1296v66h260l533 -725l526 725h76v-1362h-70v1260q-79 -116 -539 -736q-231 313 -532 731l-4 5v-1260h-70v1296h-180z" />
<glyph unicode="N" horiz-adv-x="1419" d="M0 1296v66h188q420 -500 675 -804.5t300 -359.5l45 -55v1219h72v-1362h-35l-1036 1239v-1239h-72v1296h-137z" />
<glyph unicode="O" horiz-adv-x="1533" d="M88 684q0 158 55.5 291.5t149.5 222.5t218.5 138.5t262.5 49.5t259.5 -47.5t213.5 -135.5t145.5 -222.5t53.5 -298.5q0 -104 -27.5 -205.5t-85 -192t-138 -159.5t-193.5 -109.5t-244 -40.5q-129 0 -239.5 39.5t-188.5 107t-133.5 158t-82 193t-26.5 211.5zM162 684 q0 -184 76.5 -330t215 -228.5t312.5 -82.5q171 0 309 81t216.5 228t78.5 332q0 143 -48 263.5t-130 201t-192 125.5t-234 45q-264 0 -434 -175.5t-170 -459.5z" />
<glyph unicode="P" horiz-adv-x="1058" d="M0 1296v66l543 8q224 0 348 -84q129 -90 129 -287q0 -113 -57 -198.5t-158 -128.5q-105 -45 -283 -45h-274v-627h-72v1296h-176zM248 696h278q207 0 295 60q57 40 90 106.5t33 138.5q0 302 -397 302l-299 -7v-600z" />
<glyph unicode="Q" horiz-adv-x="1533" d="M88 684q0 158 55.5 291.5t149.5 222.5t218.5 138.5t262.5 49.5t259.5 -47.5t213.5 -135.5t145.5 -222.5t53.5 -298.5q0 -104 -27.5 -205.5t-85 -192t-138 -159.5t-193.5 -109.5t-244 -40.5q-129 0 -239.5 39.5t-188.5 107t-133.5 158t-82 193t-26.5 211.5zM162 684 q0 -183 76.5 -329t214.5 -228t313 -82q172 0 309.5 80.5t216 227t78.5 331.5q0 143 -48 263t-130 200.5t-192 125t-234 44.5q-173 0 -310 -77.5t-215.5 -222.5t-78.5 -333zM741 -104l17 79l469 -98l-19 -82z" />
<glyph unicode="R" horiz-adv-x="1222" d="M0 1296v66l510 8q199 0 272 -20q109 -32 173.5 -125t64.5 -221q0 -77 -32.5 -145t-84.5 -111q-91 -73 -205 -89q32 -7 53 -17t48 -36q44 -38 104 -129l309 -477h-88l-243 375q-91 140 -172 203q-84 65 -211 65h-250v-643h-72v1296h-176zM248 715h301q158 0 239 37 q71 34 113.5 98.5t42.5 155.5q0 98 -51.5 172.5t-130.5 103.5q-60 21 -254 21l-260 -7v-581z" />
<glyph unicode="S" horiz-adv-x="1019" d="M74 100v90q193 -143 438 -143q77 0 142.5 18t116.5 55t79.5 97.5t28.5 140.5q0 105 -69 169.5t-230 129.5l-101 39q-44 17 -68 27t-60 26t-56 28t-47.5 30.5t-42 36t-31.5 41t-25.5 49.5t-14 58t-5.5 69q0 147 109.5 236t291.5 89q190 0 367 -86v-249h-66v200 q-136 66 -294 66q-151 0 -242.5 -63.5t-91.5 -192.5q0 -38 9 -70.5t22 -57t38 -47t46 -37t58 -31.5t61.5 -26.5t68.5 -25.5l123 -47q78 -30 133 -60.5t101 -73t68.5 -99.5t22.5 -130q0 -82 -28 -148.5t-72.5 -108.5t-105 -70.5t-122 -40t-126.5 -11.5q-234 0 -426 123z" />
<glyph unicode="T" horiz-adv-x="1120" d="M51 1114v248h1016v-250h-66v184h-405v-1296h-72v1296h-407v-182h-66z" />
<glyph unicode="U" horiz-adv-x="1464" d="M0 1296v66h248v-799q0 -109 10 -168q28 -163 154 -257.5t321 -94.5q182 0 304 86t161 229q19 75 19 207v797h71v-799q0 -145 -20 -223q-46 -162 -187.5 -263.5t-345.5 -101.5q-221 0 -363 111.5t-179 284.5q-17 72 -17 192v733h-176z" />
<glyph unicode="V" horiz-adv-x="1181" d="M-41 1296v66h125q433 -1033 510 -1227q116 290 510 1227h78l-568 -1362h-47l-540 1296h-68z" />
<glyph unicode="W" horiz-adv-x="1902" d="M-20 1296v66h126q83 -238 142.5 -410t101.5 -297t62 -185.5t54 -167t48 -148.5q92 294 412 1208h51q219 -616 284.5 -806t131.5 -402q104 327 409 1208h78l-465 -1362h-45q-319 914 -420 1235q-72 -219 -418 -1235h-45l-442 1296h-65z" />
<glyph unicode="X" horiz-adv-x="1257" d="M0 1296v66h170q121 -156 224 -288t148 -190t89 -116q66 90 459 594h94l-502 -647l559 -715h-96q-394 504 -516 664q-140 -185 -518 -664h-95l559 715l-452 581h-123z" />
<glyph unicode="Y" horiz-adv-x="1148" d="M-41 1296v66h127q423 -635 492 -744q78 123 487 744h84l-539 -813v-549h-71v547l-496 749h-84z" />
<glyph unicode="Z" horiz-adv-x="1179" d="M39 0v47q912 1149 993 1253q-263 -4 -872 -4v-184h-66v250h1043v-45q-783 -992 -994 -1256q300 5 934 5v184h66v-250h-1104z" />
<glyph unicode="[" horiz-adv-x="481" d="M70 -350v1859h344v-84h-275v-1691h275v-84h-344z" />
<glyph unicode="\" horiz-adv-x="638" d="M43 1362h74l481 -1362h-74z" />
<glyph unicode="]" horiz-adv-x="481" d="M70 -266h272v1691h-272v84h344v-1859h-344v84z" />
<glyph unicode="^" horiz-adv-x="944" d="M164 836l309 497l309 -497l-57 -33l-252 403l-254 -405z" />
<glyph unicode="_" horiz-adv-x="808" d="M-23 -199h854v-65h-854v65z" />
<glyph unicode="`" horiz-adv-x="739" d="M195 1491l88 41q103 -201 245 -332l-43 -41q-183 145 -290 332z" />
<glyph unicode="a" horiz-adv-x="1019" d="M80 270q0 170 186 248q174 74 504 74v72q0 119 -16 176q-17 58 -74.5 91.5t-142.5 33.5q-161 0 -310 -78v-127h-65v168q176 102 364 102q273 0 305 -209q9 -69 9 -190v-484q0 -45 6 -63q3 -13 19 -22t38 -9q43 0 98 25v-74q-53 -24 -112 -24q-123 0 -123 165v5 q-20 -27 -49 -53.5t-73 -54.5t-107 -45t-134 -17q-153 0 -238 84.5t-85 205.5zM154 268q0 -102 72 -159.5t167 -57.5q212 0 344 156q33 39 33 139v182q-148 0 -281.5 -19.5t-209.5 -57.5q-65 -33 -95 -76t-30 -107z" />
<glyph unicode="b" horiz-adv-x="1159" d="M0 1444v65h238v-725q55 109 164 175.5t229 66.5q206 0 325 -132.5t119 -365.5q0 -114 -30 -207t-81 -155.5t-120 -105t-145.5 -61.5t-159.5 -19q-74 0 -147 12t-115.5 25t-102.5 34v1393h-174zM240 100q133 -55 305 -55q95 0 177.5 30t147 89t101.5 154.5t37 216.5 q0 204 -100.5 315t-276.5 111q-106 0 -193.5 -54.5t-146.5 -140.5q-51 -79 -51 -217v-449z" />
<glyph unicode="c" horiz-adv-x="980" d="M84 506q0 150 59 269t174 189t269 70q149 0 293 -65v-168h-66v121q-115 47 -233 47q-91 0 -165.5 -27.5t-122.5 -73t-81 -106t-47 -123.5t-14 -129q0 -211 104.5 -340t304.5 -129q179 0 342 117v-78q-153 -105 -346 -105q-224 0 -347.5 145.5t-123.5 385.5z" />
<glyph unicode="d" horiz-adv-x="1159" d="M84 483q0 149 59.5 269.5t180.5 195t286 74.5q187 0 310 -49v471h-185v65h250v-1509h-59v207q-49 -95 -151.5 -162.5t-235.5 -67.5q-125 0 -215.5 40t-141.5 112t-74.5 159.5t-23.5 194.5zM150 479q0 -194 96 -316t282 -122q105 0 196.5 52.5t135.5 125.5q60 94 60 209 v471q-104 59 -308 59q-113 0 -202 -38t-145 -104t-85.5 -152t-29.5 -185z" />
<glyph unicode="e" horiz-adv-x="1105" d="M84 514q0 225 137.5 372.5t358.5 147.5q210 0 331 -122.5t121 -327.5q0 -33 -2 -49h-876q0 -227 109 -360.5t308 -133.5q82 0 148 13t118 41t79 47.5t69 54.5v-84q-160 -138 -412 -138q-118 0 -212.5 43.5t-154 118t-91 171t-31.5 206.5zM162 600h796q0 155 -101 261 t-277 106q-181 0 -291.5 -102.5t-126.5 -264.5z" />
<glyph unicode="f" horiz-adv-x="587" d="M43 946v64h178v135q0 137 12 188q45 185 289 185q83 0 205 -50v-168h-61v119q-79 33 -166 33q-163 0 -197 -125q-16 -63 -16 -221v-96h280v-64h-280v-946h-66v946h-178z" />
<glyph unicode="g" horiz-adv-x="1046" d="M68 -229q0 87 62 157t194 111q-127 33 -127 149q0 48 37.5 91.5t97.5 68.5q-91 43 -139 125t-48 182q0 147 106.5 251t293.5 104h463v-66q-210 0 -254 6q78 -43 116.5 -120t38.5 -164q0 -69 -25.5 -132t-72.5 -112.5t-121.5 -79t-165.5 -29.5q-83 0 -110 2 q-154 -28 -154 -120q0 -60 65.5 -84.5t219.5 -34.5q150 -9 227.5 -24.5t140.5 -51.5q103 -56 103 -203q0 -131 -129 -223t-346 -92q-218 0 -345.5 75t-127.5 214zM137 -229q0 -111 110 -166.5t298 -55.5q182 0 293.5 70.5t111.5 183.5q0 97 -82 144q-47 26 -159 44.5 t-201 18.5q-68 0 -131 -16q-106 -26 -173 -84.5t-67 -138.5zM215 655q0 -126 81.5 -200t233.5 -74q145 0 228.5 83t83.5 198q0 131 -79 205.5t-235 74.5q-79 0 -141 -25.5t-98.5 -67t-55 -91.5t-18.5 -103z" />
<glyph unicode="h" horiz-adv-x="1167" d="M0 1444v65h240v-723q49 99 156.5 170.5t244.5 71.5q241 0 334 -184q35 -71 35 -246v-598h-66v592q0 167 -39 239q-69 132 -258 132q-100 0 -201.5 -54t-158.5 -151q-47 -81 -47 -189v-569h-66v1444h-174z" />
<glyph unicode="i" horiz-adv-x="399" d="M0 946v66h242v-1012h-68v946h-174zM139 1303q0 29 18.5 48t49.5 19q28 0 46.5 -20t18.5 -47q0 -29 -19 -47.5t-46 -18.5q-31 0 -49.5 18.5t-18.5 47.5z" />
<glyph unicode="j" horiz-adv-x="413" d="M-63 -457q10 0 31.5 -2t33.5 -2q72 0 112 53.5t52 137.5q8 63 8 184v1032h-174v66h242v-1125q0 -117 -6 -166q-14 -116 -76 -181.5t-168 -65.5q-8 0 -27 2t-28 2v65zM139 1303q0 29 18.5 48t49.5 19q28 0 46.5 -20t18.5 -47q0 -29 -19 -47.5t-46 -18.5q-29 0 -48.5 18.5 t-19.5 47.5z" />
<glyph unicode="k" horiz-adv-x="925" d="M0 1444v65h242v-1509h-68v1444h-174zM242 539v6l2 -4zM244 541l499 469h117l-516 -463l584 -547h-107z" />
<glyph unicode="l" horiz-adv-x="411" d="M0 1444v65h242v-1370q0 -45 8 -61q12 -27 57 -27q40 0 92 25v-70q-54 -26 -102 -26q-76 0 -107 49q-16 27 -16 108v1307h-174z" />
<glyph unicode="m" horiz-adv-x="1869" d="M0 944v66h238v-213q46 97 149 164t236 67q136 0 222.5 -63t112.5 -183q48 99 154 172.5t246 73.5q118 0 196 -44t121 -140q35 -77 35 -246v-598h-65v592q0 157 -39 239q-65 132 -244 132q-97 0 -189.5 -53.5t-150.5 -151.5q-47 -81 -47 -189v-569h-66v592q0 163 -41 239 q-70 132 -241 132q-97 0 -189.5 -53.5t-150.5 -151.5q-47 -81 -47 -189v-569h-66v944h-174z" />
<glyph unicode="n" horiz-adv-x="1167" d="M0 944v66h238v-213q41 95 152 163t249 68q248 0 336 -184q35 -71 35 -246v-598h-66v590q0 169 -39 241q-69 132 -258 132q-100 0 -201.5 -54t-158.5 -151q-47 -81 -47 -189v-569h-66v944h-174z" />
<glyph unicode="o" horiz-adv-x="1189" d="M84 504q0 147 64.5 267.5t182.5 191.5t265 71q227 0 368.5 -148.5t141.5 -375.5q0 -230 -147.5 -382.5t-368.5 -152.5q-223 0 -364.5 149t-141.5 380zM152 504q0 -70 18 -137t55 -126t89 -103.5t124.5 -70.5t157.5 -26q84 0 156.5 27.5t124 74t88.5 107t55 126.5t18 132 q0 67 -16 131.5t-51.5 124.5t-86 105.5t-125 72.5t-163.5 27q-91 0 -166 -28t-125.5 -74t-86 -107t-51 -125.5t-15.5 -130.5z" />
<glyph unicode="p" horiz-adv-x="1159" d="M0 946v66h233v-201q61 103 170.5 159t217.5 56q212 0 333 -129t121 -375q0 -114 -32 -206.5t-85 -153t-125.5 -101.5t-150 -59t-162.5 -18q-149 0 -280 43v-529h-66v1448h-174zM240 104q128 -53 292 -53q96 0 179.5 28.5t151 85t106.5 150t39 213.5q0 219 -104.5 326 t-278.5 107q-98 0 -187 -50t-145 -131q-24 -37 -38.5 -93t-14.5 -107v-476z" />
<glyph unicode="q" horiz-adv-x="1159" d="M84 477q0 111 30.5 203t82 154.5t120.5 105.5t144.5 62.5t154.5 19.5q174 0 369 -74v-1450h-63v707q-60 -107 -164.5 -167.5t-212.5 -60.5q-218 0 -339.5 126.5t-121.5 373.5zM150 481q0 -220 106 -330t281 -110q99 0 188.5 53t138.5 135q25 39 40.5 96t15.5 105v473 q-46 19 -77.5 29t-89.5 19.5t-126 9.5q-96 0 -180.5 -29t-151.5 -86t-106 -151t-39 -214z" />
<glyph unicode="r" horiz-adv-x="788" d="M0 946v66h238v-238q31 105 122 178.5t215 73.5q126 0 207 -55l-47 -68q-63 53 -166 53q-61 0 -115.5 -26.5t-92 -69t-63 -90t-38.5 -96.5q-20 -91 -20 -264v-410h-66v946h-174z" />
<glyph unicode="s" horiz-adv-x="899" d="M102 66v84q93 -54 167.5 -78.5t176.5 -24.5q139 0 208 51.5t69 159.5q0 71 -51.5 113.5t-179.5 91.5l-130 49q-118 43 -172.5 101t-54.5 157q0 118 86 189t240 71q144 0 297 -63v-168h-66v119q-113 45 -235 45q-254 0 -254 -191q0 -62 41 -107.5t141 -82.5l115 -43 q63 -24 101 -40.5t79 -40.5t62 -50t35 -63t14 -83q0 -75 -29 -131t-79 -88t-110 -47.5t-129 -15.5q-178 0 -342 86z" />
<glyph unicode="t" horiz-adv-x="671" d="M18 946v64h181l4 258l61 26v-284h342v-64h-342v-569q0 -146 12 -201q27 -135 177 -135q110 0 209 51v-69q-36 -20 -93.5 -34t-113.5 -14q-105 0 -171.5 55t-78.5 150q-6 49 -6 168v598h-181z" />
<glyph unicode="u" horiz-adv-x="1150" d="M0 946v66h225v-572q0 -188 49 -266q37 -64 118.5 -98.5t185.5 -34.5q98 0 177.5 37.5t121.5 101.5q49 78 49 260v570h65v-578q0 -175 -49 -270q-45 -86 -143.5 -136.5t-227.5 -50.5q-133 0 -230.5 46.5t-137.5 136.5q-43 94 -43 274v514h-160z" />
<glyph unicode="v" horiz-adv-x="948" d="M-41 946v66h119q90 -205 175.5 -398.5t117 -265.5t59 -135.5t45.5 -110.5q70 166 395 908h78l-452 -1010h-47l-420 946h-70z" />
<glyph unicode="w" horiz-adv-x="1540" d="M-41 946v66h133q276 -753 320 -891l338 889h47q321 -839 338 -887q83 249 315 887h80l-377 -1010h-49q-279 711 -332 881q-68 -194 -338 -881h-47l-352 946h-76z" />
<glyph unicode="x" horiz-adv-x="917" d="M0 946v66h125q108 -143 188.5 -247.5t109.5 -141.5t42 -56q11 14 338 443h86l-383 -486l403 -524h-78q-112 146 -196.5 255t-120 154.5t-53.5 69.5q-12 -15 -57 -73t-121 -157t-191 -249h-78l404 520l-334 426h-84z" />
<glyph unicode="y" horiz-adv-x="974" d="M-23 946v66h117q352 -811 412 -979q4 11 373 977h84l-478 -1196q-58 -143 -108 -213q-81 -113 -227 -113q-96 0 -150 25v81q66 -38 156 -38q110 0 163 79q49 67 105 207l63 158h-36l-410 946h-64z" />
<glyph unicode="z" horiz-adv-x="991" d="M72 0v41l721 903q-262 -4 -621 -4v-178h-66v250h785v-54l-713 -892q28 0 108 0.5t236 1.5l312 2v180h65v-250h-827z" />
<glyph unicode="{" horiz-adv-x="669" d="M47 567q34 24 59.5 49.5t42.5 47.5t28 53.5t17 53t9 61.5t3.5 64t0.5 73q0 246 89 380t304 158v-86q-158 0 -241 -113.5t-83 -338.5q0 -84 -3 -130.5t-14 -101.5t-36 -93.5t-67 -70.5q35 -27 58.5 -60t36.5 -65t19 -82.5t7.5 -90.5t1.5 -113q0 -212 83 -322t238 -110v-84 q-113 13 -191.5 54.5t-122.5 111t-62.5 154t-18.5 196.5q0 54 -0.5 80t-3.5 68.5t-8.5 64.5t-17 53.5t-28 52t-42 43.5t-58.5 43z" />
<glyph unicode="|" horiz-adv-x="468" d="M199 -283v1862h71v-1862h-71z" />
<glyph unicode="}" horiz-adv-x="669" d="M70 -270q155 0 238 110t83 322q0 93 2.5 139t13.5 104t36.5 96t68.5 72q-79 60 -100 146t-21 250q0 226 -81.5 339t-239.5 113v86q215 -24 304 -158t89 -380q0 -49 0.5 -73t3.5 -64t9 -61.5t17 -53t28 -53.5t42.5 -47.5t59.5 -49.5q-34 -20 -59.5 -43t-42.5 -43.5 t-28 -52t-17 -53.5t-9 -64.5t-3.5 -68.5t-0.5 -80q0 -113 -18.5 -197t-62 -153.5t-121.5 -111t-191 -54.5v84z" />
<glyph unicode="~" horiz-adv-x="845" d="M51 635q26 79 86.5 126.5t134.5 47.5q38 0 77 -8.5t136 -36.5q74 -23 105 -23q47 0 72.5 19.5t58.5 70.5h80q-35 -91 -93 -132.5t-114 -41.5q-62 0 -225 50q-55 18 -103 18q-90 0 -143 -90h-72z" />
<glyph unicode="&#xa1;" horiz-adv-x="442" d="M154 965q0 26 19.5 45.5t45.5 19.5t46 -19.5t20 -45.5t-20 -46t-46 -20t-45.5 20t-19.5 46zM172 -348l16 1057h58l18 -1057h-92z" />
<glyph unicode="&#xa2;" horiz-adv-x="980" d="M84 498q0 138 54.5 253t159 188.5t241.5 84.5v213h79v-209q124 -2 261 -55v-168h-62v119q-90 41 -233 41q-88 0 -162 -29t-123 -75.5t-83.5 -108t-50 -124.5t-15.5 -126q0 -131 45 -232.5t140 -163t228 -61.5q180 0 334 102v-71q-136 -78 -279 -92v-217h-79v213 q-218 6 -336.5 145t-118.5 373z" />
<glyph unicode="&#xa3;" horiz-adv-x="1300" d="M137 698v62h135v190q0 201 122.5 314.5t316.5 113.5q54 0 103 -4.5t96 -15t69.5 -16t68 -20t48.5 -15.5v-250h-66v203q-144 53 -313 53q-90 0 -158.5 -22t-110.5 -57.5t-69 -87t-37 -104t-10 -114.5v-168h391v-62h-391v-635h831v-63h-1009v63h118v635h-135z" />
<glyph unicode="&#xa4;" horiz-adv-x="1034" d="M80 55l117 117q-97 123 -97 270q0 148 99 273l-117 116l53 52l113 -117q107 98 268 98q162 0 264 -96l113 115l51 -52l-110 -114q94 -115 94 -275q0 -157 -94 -268l114 -119l-49 -49l-113 113q-117 -99 -270 -99q-154 0 -270 99l-111 -115zM170 446q0 -154 98.5 -255 t247.5 -101q147 0 244.5 100.5t97.5 251.5q0 154 -97 255.5t-245 101.5q-146 0 -246 -102t-100 -251z" />
<glyph unicode="&#xa5;" horiz-adv-x="1202" d="M0 1296v66h121q-6 11 116 -173.5t247 -374.5l126 -191q32 48 84 126.5t161 244t179.5 271.5t65.5 97h80l-492 -744h328v-79h-373v-248h373v-80h-373v-211h-72v211h-378v80h378v248h-378v79h335l-448 678h-80z" />
<glyph unicode="&#xa6;" horiz-adv-x="468" d="M199 -283v768h69v-768h-69zM199 752v764h69v-764h-69z" />
<glyph unicode="&#xa7;" horiz-adv-x="1019" d="M70 -270q78 -74 190.5 -127.5t249.5 -53.5q77 0 142.5 18.5t116 55.5t79.5 98t29 140q0 58 -16.5 101t-55.5 78t-89.5 62t-133.5 60l-103 39q-56 23 -86 36t-75 35t-68.5 40t-53 46t-43.5 57t-24 67.5t-10 84.5q0 73 34.5 135.5t94.5 104.5q-64 45 -96.5 106t-32.5 152 q0 94 57 168.5t148 113.5t196 39q67 0 124 -9.5t106.5 -30.5t69.5 -31.5t61 -34.5v-209h-66v164q-141 82 -289 82q-64 0 -122 -14t-107 -43t-78 -79t-29 -116q0 -37 10 -69t24 -56.5t40.5 -47t49.5 -38t60 -33t63 -27.5t69 -26l123 -47q58 -22 101.5 -44.5t87 -54.5 t71 -68.5t44.5 -87t17 -110.5q0 -159 -104 -256q104 -94 104 -241q0 -81 -27.5 -146.5t-72.5 -108t-105 -71t-121.5 -41t-125.5 -12.5q-127 0 -246.5 47.5t-181.5 103.5v99zM201 565q0 -37 10 -69t23.5 -56t40 -47t48 -37.5t60 -33t63 -28t68.5 -26.5q142 -56 193.5 -78 t85.5 -43q75 85 75 213q0 58 -16.5 101t-55 77.5t-89 61.5t-132.5 59q-210 83 -258 107q-116 -65 -116 -201z" />
<glyph unicode="&#xa8;" horiz-adv-x="817" d="M205 1286q0 29 18.5 48.5t48.5 19.5q28 0 47 -20.5t19 -47.5q0 -28 -19.5 -46.5t-46.5 -18.5q-29 0 -48 18t-19 47zM479 1286q0 28 19 48t49 20q28 0 46.5 -20.5t18.5 -47.5q0 -29 -19 -47t-46 -18q-30 0 -49 18t-19 47z" />
<glyph unicode="&#xa9;" horiz-adv-x="1673" d="M137 680q0 189 95 350.5t257 255.5t351 94q187 0 348 -94t255.5 -255.5t94.5 -350.5q0 -188 -94.5 -349.5t-255.5 -256t-348 -94.5q-142 0 -272 56t-224.5 150t-150.5 223.5t-56 270.5zM209 678q0 -169 85 -314t230 -230t314 -85t313.5 85t228.5 230t84 314 q0 127 -50 244t-134 201.5t-199.5 135t-242.5 50.5q-169 0 -314 -85t-230 -230.5t-85 -315.5zM367 676q0 228 128.5 369t352.5 141q81 0 146.5 -17t152.5 -51v-168h-66v113q-109 51 -239 51q-106 0 -186 -38.5t-125 -102.5t-67 -138t-22 -155q0 -195 94.5 -310.5 t284.5 -115.5q187 0 344 102v-77q-168 -99 -348 -99q-220 0 -335 133t-115 363z" />
<glyph unicode="&#xaa;" horiz-adv-x="1026" d="M262 893q0 105 119 160q107 46 313 49v45q0 73 -10 108q-11 36 -45 57t-86 21q-115 0 -242 -71v45q117 67 232 67q169 0 186 -131q4 -39 4 -117v-307q0 -19 4 -35q8 -20 33 -20q15 0 55 14v-39q-30 -18 -59 -18t-52.5 22.5t-23.5 83.5q-24 -37 -90 -72.5t-137 -35.5 q-95 0 -148 50.5t-53 123.5zM305 893q0 -67 44.5 -98t107.5 -31q72 0 127.5 29.5t87.5 68.5q22 25 22 84v115q-212 0 -307 -53q-42 -23 -62 -49.5t-20 -65.5z" />
<glyph unicode="&#xab;" horiz-adv-x="825" d="M45 492l305 309h96l-272 -309l264 -277h-98zM326 492l305 309h96l-272 -309l264 -277h-101z" />
<glyph unicode="&#xac;" horiz-adv-x="765" d="M92 567v74h582v-375h-70v301h-512z" />
<glyph unicode="&#xad;" horiz-adv-x="684" d="M123 465v67h434v-67h-434z" />
<glyph unicode="&#xae;" horiz-adv-x="1673" d="M137 680q0 189 95 350.5t257 255.5t351 94q187 0 348 -94t255.5 -255.5t94.5 -350.5q0 -188 -94.5 -349.5t-255.5 -256t-348 -94.5q-142 0 -272 56t-224.5 150t-150.5 223.5t-56 270.5zM209 678q0 -169 85 -314t230 -230t314 -85q118 0 232 49t201 131.5t140 200.5 t53 248q0 127 -50 244t-134 201.5t-199.5 135t-242.5 50.5q-169 0 -314 -85t-230 -230.5t-85 -315.5zM528 205v975q240 8 293 8h25.5h24h19.5t20 -1t17 -2t18.5 -2.5t17 -3.5t18.5 -5q78 -25 128 -96t50 -163q0 -118 -88 -198q-59 -49 -151 -60q34 -5 75 -43q37 -33 66 -84 l176 -325h-72l-135 241q-59 112 -102 146q-65 47 -156 47h-186v-434h-58zM586 700h231q117 0 166 27q115 67 115 188q0 71 -36.5 125t-94.5 76q-41 14 -144 14l-237 -6v-424z" />
<glyph unicode="&#xaf;" horiz-adv-x="749" d="M129 1249v80h494v-80h-494z" />
<glyph unicode="&#xb0;" horiz-adv-x="694" d="M119 1112q0 94 67.5 161.5t159.5 67.5q94 0 160.5 -67.5t66.5 -161.5q0 -92 -66.5 -158.5t-160.5 -66.5q-92 0 -159.5 66.5t-67.5 158.5zM207 1112q0 -57 41.5 -99t99.5 -42t99.5 42t41.5 99q0 58 -41.5 99.5t-99.5 41.5t-99.5 -41.5t-41.5 -99.5z" />
<glyph unicode="&#xb1;" horiz-adv-x="911" d="M90 6v68h731v-68h-731zM90 510v65h334v324h68v-324h329v-65h-329v-342h-68v342h-334z" />
<glyph unicode="&#xb2;" horiz-adv-x="698" d="M90 799v30q21 20 56 52t108.5 99t121.5 111t46 42q4 3 10.5 10t19.5 21.5t23 25.5q82 86 82 172q0 46 -20 80.5t-51.5 51.5t-62.5 24.5t-61 7.5q-108 0 -210 -64v51q29 22 87 42t117 20q100 0 174 -54t74 -163q0 -101 -72 -184q-31 -38 -73 -80l-271 -246h410l2 -49h-510 z" />
<glyph unicode="&#xb3;" horiz-adv-x="706" d="M129 834v51q125 -47 227 -47q82 0 135.5 43t53.5 131q0 59 -34 99.5t-82.5 55.5t-104.5 11v55q90 -3 146 40t56 107q0 74 -53.5 109t-128.5 35q-87 0 -205 -49v53q114 47 205 47q39 0 77 -10t74 -31.5t58 -62t22 -95.5q0 -65 -44.5 -111t-106.5 -57l6 -4 q73 -12 118.5 -62.5t45.5 -127.5q0 -61 -24.5 -108t-63 -71.5t-76 -36.5t-70.5 -12q-113 0 -231 48z" />
<glyph unicode="&#xb4;" horiz-adv-x="751" d="M377 1200q146 135 244 332l90 -41q-111 -189 -291 -332z" />
<glyph unicode="&#xb5;" horiz-adv-x="1181" d="M0 946v66h240v-588q0 -92 18 -150q34 -103 126.5 -163t205.5 -60q112 0 201.5 61.5t130.5 166.5q20 54 20 145v586h66v-586q0 -91 -19 -152q-41 -133 -151 -214t-248 -81q-74 0 -140 18t-127.5 63.5t-97.5 113.5l17 -438h-70l2 1212h-174z" />
<glyph unicode="&#xb6;" horiz-adv-x="1153" d="M70 940q0 149 89.5 264t229.5 146q66 12 154 12h481v-78h-152v-1782h-73v1782h-224v-1782h-77v1008q-175 0 -301.5 126.5t-126.5 303.5z" />
<glyph unicode="&#xb7;" horiz-adv-x="321" d="M94 666q0 26 20 45.5t48 19.5q26 0 45.5 -19.5t19.5 -45.5t-19.5 -46t-45.5 -20q-28 0 -48 20t-20 46z" />
<glyph unicode="&#xb8;" horiz-adv-x="716" d="M190 -330q25 -19 65.5 -30t74.5 -11q119 0 119 99q0 37 -30.5 59.5t-92.5 22.5q-37 0 -95 -15l54 223h65l-37 -145q16 4 45 4q70 0 118 -38t48 -107q0 -75 -46.5 -122.5t-149.5 -47.5q-85 0 -138 35v73z" />
<glyph unicode="&#xb9;" horiz-adv-x="712" d="M154 799v49h176v602q-10 -18 -51.5 -46.5t-78.5 -47.5l-36 -19v56q15 9 39 24.5t81 62.5t93 91h6v-723h174v-49h-403z" />
<glyph unicode="&#xba;" horiz-adv-x="1210" d="M240 1047q0 139 90 234t229 95q141 0 229.5 -91.5t88.5 -233.5q0 -136 -91 -233t-227 -97q-139 0 -229 93t-90 233zM281 1047q0 -69 30.5 -133t96 -108t151.5 -44q65 0 119.5 26.5t88 69t51.5 93t18 100.5q0 51 -16.5 100t-49 91.5t-87.5 68.5t-124 26q-71 0 -126 -26.5 t-87 -70t-48.5 -93t-16.5 -100.5z" />
<glyph unicode="&#xbb;" horiz-adv-x="825" d="M102 801h97l305 -309l-295 -277h-98l262 277zM381 801h98l305 -309l-295 -277h-98l262 277z" />
<glyph unicode="&#xbc;" horiz-adv-x="1603" d="M154 451v49h176v602q-10 -18 -51.5 -46.5t-78.5 -47.5l-36 -19v55q5 3 14.5 9t37 25t52.5 39t56 49t53 57h6v-723h174v-49h-403zM287 -61l991 1345h61l-989 -1345h-63zM864 199l398 569h63q-5 -9 -98.5 -143t-184.5 -263.5t-88 -125.5h310v264l53 69v-333h92v-60h-92 v-176h-51v176h-394z" />
<glyph unicode="&#xbd;" horiz-adv-x="1601" d="M154 451v49h176v602q-10 -18 -51.5 -46.5t-78.5 -47.5l-36 -19v55q5 3 14.5 9t37 25t52.5 39t56 49t53 57h6v-723h174v-49h-403zM287 -61l991 1345h61l-989 -1345h-63zM965 0v31q21 20 56 51.5t108.5 99t121 111t45.5 41.5q3 2 54 57q82 86 82 172q0 46 -20 80.5 t-51.5 51.5t-62.5 24.5t-61 7.5q-78 0 -162 -37v-119h-49v144q29 21 87 41t118 20q100 0 174 -54t74 -163q0 -101 -72 -184q-27 -33 -74 -80l-270 -246h410v-49h-508z" />
<glyph unicode="&#xbe;" horiz-adv-x="1585" d="M127 485v52q127 -48 227 -48q82 0 135.5 43.5t53.5 131.5q0 59 -34 99t-82.5 55t-104.5 11v56q90 -3 146 40t56 107q0 74 -53.5 109t-128.5 35q-65 0 -156 -31v-123h-49v158q114 47 205 47q39 0 77 -10t74 -31.5t58 -62t22 -95.5q0 -65 -44.5 -111t-106.5 -57l6 -4 q73 -12 118.5 -62.5t45.5 -127.5q0 -61 -24.5 -108t-63 -71.5t-76 -36.5t-70.5 -12q-116 0 -231 47zM348 -61l991 1345h62l-989 -1345h-64zM864 199l398 569h63q-5 -9 -98.5 -143t-184.5 -263.5t-88 -125.5h310v264l53 69v-333h92v-60h-92v-176h-51v176h-394z" />
<glyph unicode="&#xbf;" horiz-adv-x="651" d="M106 -231q0 36 13.5 75.5t44 84.5t49.5 70.5t61 74.5t48 57q9 11 33.5 40t31 37t22.5 30t20.5 32.5t12 29.5t9.5 36.5t2 38.5q0 24 -8 100.5t-11 93.5h62q20 -180 20 -190q0 -35 -6 -64t-23.5 -59.5t-29.5 -48.5t-43.5 -57t-46.5 -60q-1 -1 -23 -28.5t-33 -42.5 t-34 -46.5t-36.5 -55t-28.5 -53t-22.5 -56t-7.5 -48.5q0 -194 197 -194q63 0 147 26v115h66v-168q-123 -47 -209 -47q-134 0 -205.5 72.5t-71.5 204.5zM387 827q0 26 20 46t46 20t45.5 -20t19.5 -46t-19.5 -45.5t-45.5 -19.5t-46 19.5t-20 45.5z" />
<glyph unicode="&#xc0;" horiz-adv-x="1236" d="M18 0l539 1296h-162v66h250l574 -1362h-82l-203 485h-637l-203 -485h-76zM326 551h575q-245 605 -287 717q-1 -2 -24 -61t-95.5 -240t-168.5 -416zM354 1671l72 70q165 -157 342 -234l-27 -55q-231 82 -387 219z" />
<glyph unicode="&#xc1;" horiz-adv-x="1236" d="M18 0l539 1296h-162v66h250l574 -1362h-82l-203 485h-637l-203 -485h-76zM326 551h575q-245 605 -287 717q-1 -2 -24 -61t-95.5 -240t-168.5 -416zM395 1524q185 83 342 233l72 -69q-168 -144 -385 -218z" />
<glyph unicode="&#xc2;" horiz-adv-x="1236" d="M18 0l539 1296h-162v66h250l574 -1362h-82l-203 485h-637l-203 -485h-76zM289 1473q89 72 145.5 137t100.5 157h75q43 -92 99 -156.5t147 -137.5l-53 -17q-121 59 -228 209q-110 -154 -233 -209zM326 551h575q-245 605 -287 717q-1 -2 -24 -61t-95.5 -240t-168.5 -416z " />
<glyph unicode="&#xc3;" horiz-adv-x="1236" d="M18 0l539 1296h-162v66h250l574 -1362h-82l-203 485h-637l-203 -485h-76zM283 1442q26 92 66 142t106 50q56 0 139 -49q80 -49 121 -49q25 0 41.5 27t40.5 92l65 -10q-34 -114 -65.5 -154.5t-79.5 -40.5q-56 0 -144 51q-40 21 -55 29t-34.5 15t-34.5 7q-60 0 -103 -120z M326 551h575q-245 605 -287 717q-1 -2 -24 -61t-95.5 -240t-168.5 -416z" />
<glyph unicode="&#xc4;" horiz-adv-x="1236" d="M18 0l539 1296h-162v66h250l574 -1362h-82l-203 485h-637l-203 -485h-76zM326 551h575q-245 605 -287 717q-1 -2 -24 -61t-95.5 -240t-168.5 -416zM369 1520q0 28 18.5 47.5t48.5 19.5q28 0 47 -20t19 -47q0 -29 -19.5 -47.5t-46.5 -18.5q-29 0 -48 18.5t-19 47.5z M647 1520q0 28 19 47.5t49 19.5q28 0 46.5 -20t18.5 -47q0 -29 -19 -47.5t-46 -18.5q-29 0 -48.5 18.5t-19.5 47.5z" />
<glyph unicode="&#xc5;" horiz-adv-x="1236" d="M18 0l539 1296h-162v66h250l574 -1362h-82l-203 485h-637l-203 -485h-76zM326 551h575q-245 605 -287 717q-1 -2 -24 -61t-95.5 -240t-168.5 -416zM414 1634q0 75 52.5 125.5t127.5 50.5q77 0 129.5 -50.5t52.5 -125.5q0 -76 -52.5 -127t-129.5 -51q-76 0 -128 51 t-52 127zM479 1634q0 -50 33 -83t82 -33q50 0 84.5 33.5t34.5 82.5q0 48 -35 82.5t-84 34.5t-82 -34.5t-33 -82.5z" />
<glyph unicode="&#xc6;" horiz-adv-x="1923" d="M10 0l873 1296h-172v66h1126v-248h-65v180h-664v-557h659v-69h-659v-600h727v-68h-799v406h-667l-271 -406h-88zM408 471h628v825h-82z" />
<glyph unicode="&#xc7;" horiz-adv-x="1341" d="M90 682q0 158 56 292t151.5 223.5t221 139t263.5 49.5q248 0 463 -102v-250h-65v199q-181 84 -404 84q-128 0 -240.5 -45.5t-195 -127t-130.5 -202t-48 -262.5q0 -132 42.5 -247.5t119.5 -202t194 -136t258 -49.5q154 0 289 45.5t205 93.5v-86q-211 -115 -463 -123 l-23 -92q16 4 45 4q70 0 118 -38t48 -107q0 -75 -46.5 -122.5t-149.5 -47.5q-84 0 -137 35v74q25 -19 65 -30t74 -11q119 0 119 98q0 37 -30.5 59.5t-92.5 22.5q-37 0 -95 -15l41 172q-133 3 -243.5 45.5t-185 111t-126 159t-75 188.5t-23.5 201z" />
<glyph unicode="&#xc8;" horiz-adv-x="1021" d="M0 1296v66h895v-66h-647v-559h612v-67h-612v-604h684v-66h-756v1296h-176zM326 1671l71 70q165 -157 342 -234l-26 -55q-231 82 -387 219z" />
<glyph unicode="&#xc9;" horiz-adv-x="1021" d="M0 1296v66h895v-66h-647v-559h612v-67h-612v-604h684v-66h-756v1296h-176zM358 1524q185 83 342 233l72 -69q-168 -144 -385 -218z" />
<glyph unicode="&#xca;" horiz-adv-x="1021" d="M0 1296v66h895v-66h-647v-559h612v-67h-612v-604h684v-66h-756v1296h-176zM260 1473q89 72 145.5 137t100.5 157h76q43 -92 99 -156.5t146 -137.5l-53 -17q-120 58 -227 209q-110 -153 -234 -209z" />
<glyph unicode="&#xcb;" horiz-adv-x="1021" d="M0 1296v66h895v-66h-647v-559h612v-67h-612v-604h684v-66h-756v1296h-176zM356 1520q0 28 19 47.5t49 19.5q28 0 46.5 -20t18.5 -47q0 -29 -19 -47.5t-46 -18.5q-29 0 -48.5 18.5t-19.5 47.5zM635 1520q0 28 18.5 47.5t48.5 19.5q28 0 47 -20t19 -47q0 -29 -19.5 -47.5 t-46.5 -18.5q-29 0 -48 18.5t-19 47.5z" />
<glyph unicode="&#xcc;" d="M-129 1671l72 70q165 -157 342 -234l-27 -55q-231 82 -387 219zM0 1296v66h250v-1362h-74v1296h-176z" />
<glyph unicode="&#xcd;" d="M-25 1524q185 83 342 233l72 -69q-168 -144 -385 -218zM0 1296v66h250v-1362h-74v1296h-176z" />
<glyph unicode="&#xce;" d="M-137 1473q89 72 145.5 137t100.5 157h75q43 -92 99 -156.5t147 -137.5l-53 -17q-120 58 -227 209q-110 -153 -234 -209zM0 1296v66h250v-1362h-74v1296h-176z" />
<glyph unicode="&#xcf;" d="M-74 1520q0 28 19 47.5t49 19.5q28 0 46.5 -20t18.5 -47q0 -29 -19 -47.5t-46 -18.5q-29 0 -48.5 18.5t-19.5 47.5zM0 1296v66h250v-1362h-74v1296h-176zM205 1520q0 28 18.5 47.5t48.5 19.5q28 0 47 -20t19 -47q0 -29 -19.5 -47.5t-46.5 -18.5q-29 0 -48 18.5t-19 47.5z " />
<glyph unicode="&#xd0;" horiz-adv-x="1431" d="M0 682v70h176v544h-176v66l629 6q157 0 284.5 -39.5t225 -119.5t151 -212t53.5 -307q0 -128 -52 -258.5t-156.5 -239.5t-239.5 -155q-105 -37 -279 -37h-440v682h-176zM248 66h360q178 0 281 40q165 64 271 228.5t106 351.5q0 298 -170.5 457.5t-468.5 159.5 q-65 0 -201.5 -3t-177.5 -4v-544h420v-70h-420v-616z" />
<glyph unicode="&#xd1;" horiz-adv-x="1419" d="M0 1296v66h188q420 -500 675 -804.5t300 -359.5l45 -55v1219h72v-1362h-35l-1036 1239v-1239h-72v1296h-137zM449 1442q26 92 66 142t106 50q56 0 139 -49q80 -49 121 -49q25 0 41.5 27t40.5 92l65 -10q-34 -114 -65.5 -154.5t-79.5 -40.5q-56 0 -144 51q-38 21 -54.5 29 t-36 15t-34.5 7q-32 0 -56.5 -30t-45.5 -90z" />
<glyph unicode="&#xd2;" horiz-adv-x="1533" d="M88 684q0 158 55.5 291.5t149.5 222.5t218.5 138.5t262.5 49.5t259.5 -47.5t213.5 -135.5t145.5 -222.5t53.5 -298.5q0 -104 -27.5 -205.5t-85 -192t-138 -159.5t-193.5 -109.5t-244 -40.5q-129 0 -239.5 39.5t-188.5 107t-133.5 158t-82 193t-26.5 211.5zM162 684 q0 -184 76.5 -330t215 -228.5t312.5 -82.5q171 0 309 81t216.5 228t78.5 332q0 143 -48 263.5t-130 201t-192 125.5t-234 45q-264 0 -434 -175.5t-170 -459.5zM557 1671l72 70q165 -157 342 -234l-27 -55q-231 82 -387 219z" />
<glyph unicode="&#xd3;" horiz-adv-x="1533" d="M88 684q0 158 55.5 291.5t149.5 222.5t218.5 138.5t262.5 49.5t259.5 -47.5t213.5 -135.5t145.5 -222.5t53.5 -298.5q0 -104 -27.5 -205.5t-85 -192t-138 -159.5t-193.5 -109.5t-244 -40.5q-129 0 -239.5 39.5t-188.5 107t-133.5 158t-82 193t-26.5 211.5zM162 684 q0 -184 76.5 -330t215 -228.5t312.5 -82.5q171 0 309 81t216.5 228t78.5 332q0 143 -48 263.5t-130 201t-192 125.5t-234 45q-264 0 -434 -175.5t-170 -459.5zM600 1524q185 83 342 233l72 -69q-168 -144 -385 -218z" />
<glyph unicode="&#xd4;" horiz-adv-x="1533" d="M88 684q0 158 55.5 291.5t149.5 222.5t218.5 138.5t262.5 49.5t259.5 -47.5t213.5 -135.5t145.5 -222.5t53.5 -298.5q0 -104 -27.5 -205.5t-85 -192t-138 -159.5t-193.5 -109.5t-244 -40.5q-129 0 -239.5 39.5t-188.5 107t-133.5 158t-82 193t-26.5 211.5zM162 684 q0 -184 76.5 -330t215 -228.5t312.5 -82.5q171 0 309 81t216.5 228t78.5 332q0 143 -48 263.5t-130 201t-192 125.5t-234 45q-264 0 -434 -175.5t-170 -459.5zM504 1473q89 72 145.5 137t100.5 157h75q43 -92 99 -156.5t147 -137.5l-53 -17q-120 58 -227 209 q-110 -153 -234 -209z" />
<glyph unicode="&#xd5;" horiz-adv-x="1533" d="M88 684q0 158 55.5 291.5t149.5 222.5t218.5 138.5t262.5 49.5t259.5 -47.5t213.5 -135.5t145.5 -222.5t53.5 -298.5q0 -104 -27.5 -205.5t-85 -192t-138 -159.5t-193.5 -109.5t-244 -40.5q-129 0 -239.5 39.5t-188.5 107t-133.5 158t-82 193t-26.5 211.5zM162 684 q0 -184 76.5 -330t215 -228.5t312.5 -82.5q171 0 309 81t216.5 228t78.5 332q0 143 -48 263.5t-130 201t-192 125.5t-234 45q-264 0 -434 -175.5t-170 -459.5zM496 1442q26 92 66 142t106 50q56 0 139 -49q80 -49 121 -49q25 0 41.5 27t40.5 92l65 -10 q-34 -114 -65.5 -154.5t-79.5 -40.5q-56 0 -144 51q-40 21 -55 29t-34.5 15t-34.5 7q-60 0 -103 -120z" />
<glyph unicode="&#xd6;" horiz-adv-x="1533" d="M88 684q0 158 55.5 291.5t149.5 222.5t218.5 138.5t262.5 49.5t259.5 -47.5t213.5 -135.5t145.5 -222.5t53.5 -298.5q0 -104 -27.5 -205.5t-85 -192t-138 -159.5t-193.5 -109.5t-244 -40.5q-129 0 -239.5 39.5t-188.5 107t-133.5 158t-82 193t-26.5 211.5zM162 684 q0 -184 76.5 -330t215 -228.5t312.5 -82.5q171 0 309 81t216.5 228t78.5 332q0 143 -48 263.5t-130 201t-192 125.5t-234 45q-264 0 -434 -175.5t-170 -459.5zM565 1520q0 28 19 47.5t49 19.5q28 0 46.5 -20t18.5 -47q0 -29 -19 -47.5t-46 -18.5q-29 0 -48.5 18.5 t-19.5 47.5zM844 1520q0 28 18.5 47.5t48.5 19.5q28 0 47 -20t19 -47q0 -29 -19.5 -47.5t-46.5 -18.5q-29 0 -48 18.5t-19 47.5z" />
<glyph unicode="&#xd7;" horiz-adv-x="911" d="M127 219l285 287l-281 280l47 48l281 -283l274 276l47 -47l-274 -274l278 -277l-47 -47l-278 277l-285 -287z" />
<glyph unicode="&#xd8;" horiz-adv-x="1536" d="M-4 -14l237 239q-147 191 -147 459q0 127 36 238.5t100 195.5t150 145t189 92t213 31q273 0 455 -167l188 190l56 -49l-191 -191q166 -190 166 -487q0 -104 -27.5 -205.5t-85 -192t-138 -159.5t-193.5 -109.5t-244 -40.5q-301 0 -481 193l-234 -234zM162 684 q0 -242 125 -408l887 889q-169 152 -408 152q-173 0 -310 -77.5t-215.5 -222.5t-78.5 -333zM332 219q80 -84 191.5 -129t242.5 -45q172 0 310.5 80.5t217 227t78.5 331.5q0 256 -141 434z" />
<glyph unicode="&#xd9;" horiz-adv-x="1404" d="M0 1296v66h248v-799q0 -109 10 -168q28 -163 154 -257.5t321 -94.5q182 0 304 86t161 229q19 75 19 207v797h71v-799q0 -145 -20 -223q-46 -162 -187.5 -263.5t-345.5 -101.5q-221 0 -363 111.5t-179 284.5q-17 72 -17 192v733h-176zM512 1671l72 70q165 -157 342 -234 l-27 -55q-231 82 -387 219z" />
<glyph unicode="&#xda;" horiz-adv-x="1404" d="M0 1296v66h248v-799q0 -109 10 -168q28 -163 154 -257.5t321 -94.5q182 0 304 86t161 229q19 75 19 207v797h71v-799q0 -145 -20 -223q-46 -162 -187.5 -263.5t-345.5 -101.5q-221 0 -363 111.5t-179 284.5q-17 72 -17 192v733h-176zM563 1524q185 83 342 233l72 -69 q-168 -144 -385 -218z" />
<glyph unicode="&#xdb;" horiz-adv-x="1404" d="M0 1296v66h248v-799q0 -109 10 -168q28 -163 154 -257.5t321 -94.5q182 0 304 86t161 229q19 75 19 207v797h71v-799q0 -145 -20 -223q-46 -162 -187.5 -263.5t-345.5 -101.5q-221 0 -363 111.5t-179 284.5q-17 72 -17 192v733h-176zM461 1473q89 72 145.5 137t100.5 157 h75q43 -92 99 -156.5t147 -137.5l-53 -17q-120 58 -227 209q-110 -153 -234 -209z" />
<glyph unicode="&#xdc;" horiz-adv-x="1404" d="M0 1296v66h248v-799q0 -109 10 -168q28 -163 154 -257.5t321 -94.5q182 0 304 86t161 229q19 75 19 207v797h71v-799q0 -145 -20 -223q-46 -162 -187.5 -263.5t-345.5 -101.5q-221 0 -363 111.5t-179 284.5q-17 72 -17 192v733h-176zM535 1520q0 28 18.5 47.5t48.5 19.5 q28 0 47 -20t19 -47q0 -29 -19.5 -47.5t-46.5 -18.5q-29 0 -48 18.5t-19 47.5zM813 1520q0 28 19 47.5t49 19.5q28 0 46.5 -20t18.5 -47q0 -29 -19 -47.5t-46 -18.5q-29 0 -48.5 18.5t-19.5 47.5z" />
<glyph unicode="&#xdd;" horiz-adv-x="1210" d="M-41 1296v66h127q423 -635 492 -744q78 123 487 744h84l-539 -813v-549h-71v547l-496 749h-84zM442 1524q185 83 342 233l72 -69q-168 -144 -385 -218z" />
<glyph unicode="&#xde;" horiz-adv-x="1058" d="M0 1296v66h248v-291q288 6 295 6q477 0 477 -370q0 -114 -59 -201.5t-160 -130.5q-105 -45 -238 -45h-315v-330h-72v1296h-176zM248 403h321q162 0 250 60q57 40 91 106t34 138q0 84 -29.5 143.5t-85 93t-124.5 48t-158 14.5l-299 -7v-596z" />
<glyph unicode="&#xdf;" horiz-adv-x="1150" d="M39 946v64h182v55q0 145 17 209q30 106 125 174t243 68q175 0 268 -92.5t93 -274.5q0 -95 -13 -217q-29 9 -91.5 19t-96.5 10q-109 0 -180.5 -43t-71.5 -127q0 -72 40.5 -121t127.5 -88l106 -47q102 -46 156.5 -84.5t82.5 -88.5t28 -120q0 -62 -21.5 -109.5t-54 -75.5 t-77 -46t-85 -24.5t-82.5 -6.5q-160 0 -299 83v226h70v-185q109 -57 239 -57q119 0 180.5 44t61.5 145q0 27 -7 51t-16.5 41.5t-28 35t-33 29t-41 25.5t-41.5 21t-45.5 20.5t-43.5 19.5l-92 41q-106 46 -151.5 110.5t-45.5 157.5q0 110 90 182t248 62q5 -1 29 -2t46 -3 t30 -5q10 51 10 119q2 139 -70 225t-223 86q-115 0 -192.5 -49t-100.5 -123q-22 -75 -22 -211v-1069h-66v946h-182z" />
<glyph unicode="&#xe0;" horiz-adv-x="1019" d="M80 270q0 170 186 248q174 74 504 74v72q0 119 -16 176q-17 58 -74.5 91.5t-142.5 33.5q-161 0 -310 -78v-127h-65v168q176 102 364 102q273 0 305 -209q9 -69 9 -190v-484q0 -45 6 -63q3 -13 19 -22t38 -9q43 0 98 25v-74q-53 -24 -112 -24q-125 0 -123 170 q-20 -27 -49 -53.5t-73 -54.5t-107 -45t-134 -17q-153 0 -238 84.5t-85 205.5zM154 268q0 -102 72 -159.5t167 -57.5q212 0 344 156q33 39 33 139v182q-148 0 -281.5 -19.5t-209.5 -57.5q-65 -33 -95 -76t-30 -107zM299 1491l88 41q102 -199 246 -332l-43 -41 q-185 146 -291 332z" />
<glyph unicode="&#xe1;" horiz-adv-x="1019" d="M80 270q0 170 186 248q174 74 504 74v72q0 119 -16 176q-17 58 -74.5 91.5t-142.5 33.5q-161 0 -310 -78v-127h-65v168q176 102 364 102q273 0 305 -209q9 -69 9 -190v-484q0 -45 6 -63q3 -13 19 -22t38 -9q43 0 98 25v-74q-53 -24 -112 -24q-125 0 -123 170 q-20 -27 -49 -53.5t-73 -54.5t-107 -45t-134 -17q-153 0 -238 84.5t-85 205.5zM154 268q0 -102 72 -159.5t167 -57.5q212 0 344 156q33 39 33 139v182q-148 0 -281.5 -19.5t-209.5 -57.5q-65 -33 -95 -76t-30 -107zM422 1200q146 135 244 332l90 -41q-111 -189 -291 -332z " />
<glyph unicode="&#xe2;" horiz-adv-x="1019" d="M80 270q0 170 186 248q174 74 504 74v72q0 119 -16 176q-17 58 -74.5 91.5t-142.5 33.5q-161 0 -310 -78v-127h-65v168q176 102 364 102q273 0 305 -209q9 -69 9 -190v-484q0 -45 6 -63q3 -13 19 -22t38 -9q43 0 98 25v-74q-53 -24 -112 -24q-125 0 -123 170 q-20 -27 -49 -53.5t-73 -54.5t-107 -45t-134 -17q-153 0 -238 84.5t-85 205.5zM154 268q0 -102 72 -159.5t167 -57.5q212 0 344 156q33 39 33 139v182q-148 0 -281.5 -19.5t-209.5 -57.5q-65 -33 -95 -76t-30 -107zM217 1188q145 139 248 328h74q88 -177 249 -328l-59 -23 q-136 111 -233 250q-120 -170 -224 -250z" />
<glyph unicode="&#xe3;" horiz-adv-x="1019" d="M80 270q0 170 186 248q174 74 504 74v72q0 119 -16 176q-17 58 -74.5 91.5t-142.5 33.5q-161 0 -310 -78v-127h-65v168q176 102 364 102q273 0 305 -209q9 -69 9 -190v-484q0 -45 6 -63q3 -13 19 -22t38 -9q43 0 98 25v-74q-53 -24 -112 -24q-125 0 -123 170 q-20 -27 -49 -53.5t-73 -54.5t-107 -45t-134 -17q-153 0 -238 84.5t-85 205.5zM154 268q0 -102 72 -159.5t167 -57.5q212 0 344 156q33 39 33 139v182q-148 0 -281.5 -19.5t-209.5 -57.5q-65 -33 -95 -76t-30 -107zM207 1245q26 92 66 142.5t106 50.5q51 0 139 -52 q80 -49 121 -49q25 0 41.5 27t40.5 92l65 -10q-34 -114 -66 -154.5t-79 -40.5q-53 0 -143 52q-38 21 -54.5 29t-36 15t-34.5 7q-60 0 -103 -119z" />
<glyph unicode="&#xe4;" horiz-adv-x="1019" d="M80 270q0 170 186 248q174 74 504 74v72q0 119 -16 176q-17 58 -74.5 91.5t-142.5 33.5q-161 0 -310 -78v-127h-65v168q176 102 364 102q273 0 305 -209q9 -69 9 -190v-484q0 -45 6 -63q3 -13 19 -22t38 -9q43 0 98 25v-74q-53 -24 -112 -24q-125 0 -123 170 q-20 -27 -49 -53.5t-73 -54.5t-107 -45t-134 -17q-153 0 -238 84.5t-85 205.5zM154 268q0 -102 72 -159.5t167 -57.5q212 0 344 156q33 39 33 139v182q-148 0 -281.5 -19.5t-209.5 -57.5q-65 -33 -95 -76t-30 -107zM326 1286q0 29 18.5 48.5t48.5 19.5q28 0 47 -20.5 t19 -47.5q0 -28 -19.5 -46.5t-46.5 -18.5q-29 0 -48 18t-19 47zM600 1286q0 28 19 48t49 20q28 0 46.5 -20.5t18.5 -47.5q0 -29 -19 -47t-46 -18q-30 0 -49 18t-19 47z" />
<glyph unicode="&#xe5;" horiz-adv-x="1019" d="M80 270q0 170 186 248q174 74 504 74v72q0 119 -16 176q-17 58 -74.5 91.5t-142.5 33.5q-161 0 -310 -78v-127h-65v168q176 102 364 102q273 0 305 -209q9 -69 9 -190v-484q0 -45 6 -63q3 -13 19 -22t38 -9q43 0 98 25v-74q-53 -24 -112 -24q-125 0 -123 170 q-20 -27 -49 -53.5t-73 -54.5t-107 -45t-134 -17q-153 0 -238 84.5t-85 205.5zM154 268q0 -102 72 -159.5t167 -57.5q212 0 344 156q33 39 33 139v182q-148 0 -281.5 -19.5t-209.5 -57.5q-65 -33 -95 -76t-30 -107zM342 1331q0 76 52.5 127t129.5 51q76 0 128.5 -51 t52.5 -127q0 -75 -53 -125.5t-128 -50.5q-77 0 -129.5 50.5t-52.5 125.5zM408 1331q0 -48 33.5 -81t82.5 -33q48 0 82.5 33.5t34.5 80.5q0 49 -34.5 84t-82.5 35q-49 0 -82.5 -34.5t-33.5 -84.5z" />
<glyph unicode="&#xe6;" horiz-adv-x="1796" d="M80 270q0 178 186 256q170 73 504 76v68q0 113 -16 170q-17 58 -74.5 91.5t-142.5 33.5q-161 0 -310 -78v-127h-65v168q176 102 364 102q154 0 226.5 -58.5t87.5 -164.5q61 105 172 166t248 61q224 0 342 -145q114 -141 114 -340v-19h-882q0 -220 108.5 -354.5 t306.5 -134.5q48 0 92.5 6.5t75 12.5t67.5 23.5t53.5 25t49 32t38.5 29.5t38 31v-88q-160 -138 -412 -138q-145 0 -249.5 63t-165.5 175q-18 -38 -52.5 -76t-85 -74.5t-123.5 -59.5t-155 -23q-163 0 -251.5 84.5t-88.5 205.5zM154 266q0 -102 77.5 -158.5t184.5 -56.5 q127 0 226.5 61t164.5 175q-33 86 -37 243q-345 0 -491 -73q-125 -65 -125 -191zM840 600h796q-6 156 -105.5 261.5t-273.5 105.5q-175 0 -288 -105t-129 -262z" />
<glyph unicode="&#xe7;" horiz-adv-x="980" d="M84 506q0 150 59 269t174 189t269 70q149 0 293 -65v-168h-66v121q-115 47 -233 47q-91 0 -165.5 -27.5t-122.5 -73t-81 -106t-47 -123.5t-14 -129q0 -211 104.5 -340t304.5 -129q179 0 342 117v-78q-133 -92 -299 -103l-27 -104q16 4 46 4q70 0 117.5 -38t47.5 -107 q0 -75 -46.5 -122.5t-149.5 -47.5q-84 0 -137 35v73q25 -19 65 -30t74 -11q119 0 119 99q0 37 -30.5 59.5t-92.5 22.5q-36 0 -94 -15l43 180q-215 6 -334 150.5t-119 380.5z" />
<glyph unicode="&#xe8;" horiz-adv-x="1105" d="M84 514q0 225 137.5 372.5t358.5 147.5q210 0 331 -122.5t121 -327.5q0 -33 -2 -49h-876q0 -227 109 -360.5t308 -133.5q82 0 148 13t118 41t79 47.5t69 54.5v-84q-160 -138 -412 -138q-118 0 -212.5 43.5t-154 118t-91 171t-31.5 206.5zM162 600h796q0 155 -101 261 t-277 106q-181 0 -291.5 -102.5t-126.5 -264.5zM332 1491l88 41q102 -199 246 -332l-43 -41q-185 146 -291 332z" />
<glyph unicode="&#xe9;" horiz-adv-x="1105" d="M84 514q0 225 137.5 372.5t358.5 147.5q210 0 331 -122.5t121 -327.5q0 -33 -2 -49h-876q0 -227 109 -360.5t308 -133.5q82 0 148 13t118 41t79 47.5t69 54.5v-84q-160 -138 -412 -138q-118 0 -212.5 43.5t-154 118t-91 171t-31.5 206.5zM162 600h796q0 155 -101 261 t-277 106q-181 0 -291.5 -102.5t-126.5 -264.5zM412 1200q144 133 243 332l90 -41q-112 -191 -290 -332z" />
<glyph unicode="&#xea;" horiz-adv-x="1105" d="M84 514q0 225 137.5 372.5t358.5 147.5q210 0 331 -122.5t121 -327.5q0 -33 -2 -49h-876q0 -227 109 -360.5t308 -133.5q82 0 148 13t118 41t79 47.5t69 54.5v-84q-160 -138 -412 -138q-118 0 -212.5 43.5t-154 118t-91 171t-31.5 206.5zM162 600h796q0 155 -101 261 t-277 106q-181 0 -291.5 -102.5t-126.5 -264.5zM309 1188q145 139 248 328h74q87 -175 250 -328l-60 -23q-136 111 -233 250q-121 -171 -223 -250z" />
<glyph unicode="&#xeb;" horiz-adv-x="1105" d="M84 514q0 225 137.5 372.5t358.5 147.5q210 0 331 -122.5t121 -327.5q0 -33 -2 -49h-876q0 -227 109 -360.5t308 -133.5q82 0 148 13t118 41t79 47.5t69 54.5v-84q-160 -138 -412 -138q-118 0 -212.5 43.5t-154 118t-91 171t-31.5 206.5zM162 600h796q0 155 -101 261 t-277 106q-181 0 -291.5 -102.5t-126.5 -264.5zM381 1286q0 28 19 48t49 20q28 0 46.5 -20.5t18.5 -47.5q0 -29 -19 -47t-46 -18q-30 0 -49 18t-19 47zM655 1286q0 28 19 48t49 20q28 0 46.5 -20.5t18.5 -47.5q0 -29 -19 -47t-46 -18q-30 0 -49 18t-19 47z" />
<glyph unicode="&#xec;" horiz-adv-x="399" d="M-61 1491l88 41q103 -201 245 -332l-43 -41q-183 145 -290 332zM0 940v70h242v-1010h-68v940h-174z" />
<glyph unicode="&#xed;" horiz-adv-x="399" d="M0 940v70h242v-1010h-68v940h-174zM147 1200q146 135 244 332l90 -41q-111 -189 -291 -332z" />
<glyph unicode="&#xee;" horiz-adv-x="399" d="M-74 1188q145 139 248 328h74q87 -175 250 -328l-60 -23q-136 111 -233 250q-121 -171 -223 -250zM0 940v70h242v-1010h-68v940h-174z" />
<glyph unicode="&#xef;" horiz-adv-x="399" d="M-4 1286q0 29 18.5 48.5t48.5 19.5q28 0 47 -20.5t19 -47.5q0 -28 -19.5 -46.5t-46.5 -18.5q-29 0 -48 18t-19 47zM0 940v70h242v-1010h-68v940h-174zM270 1286q0 28 19 48t49 20q28 0 46.5 -20.5t18.5 -47.5q0 -29 -19 -47t-46 -18q-30 0 -49 18t-19 47z" />
<glyph unicode="&#xf0;" horiz-adv-x="1138" d="M84 504q0 147 64.5 267.5t182.5 191.5t265 71q160 0 283 -74.5t174 -218.5q-12 119 -47.5 248t-100.5 219q-44 57 -88 101l-166 -166l-53 55l160 160q-93 74 -197 110l27 68q123 -48 223 -125l164 164l53 -55l-158 -158q51 -51 97 -121q128 -207 141 -448q6 -82 6 -195 q0 -83 -16.5 -166t-56 -167t-97.5 -147t-149.5 -103t-204.5 -40q-223 0 -364.5 149t-141.5 380zM152 504q0 -70 18 -137t55 -126t89 -103.5t124.5 -70.5t157.5 -26q105 0 190.5 40t139.5 109t83 157.5t29 187.5q0 84 -26.5 160t-78.5 138t-139 99t-198 37q-91 0 -166 -28 t-125.5 -74t-86 -107t-51 -125.5t-15.5 -130.5z" />
<glyph unicode="&#xf1;" horiz-adv-x="1167" d="M0 944v66h238v-213q41 95 152 163t249 68q248 0 336 -184q35 -71 35 -246v-598h-66v590q0 169 -39 241q-69 132 -258 132q-100 0 -201.5 -54t-158.5 -151q-47 -81 -47 -189v-569h-66v944h-174zM293 1245q26 92 66 142.5t106 50.5q51 0 139 -52q80 -49 121 -49 q25 0 41.5 27t40.5 92l65 -10q-34 -114 -66 -154.5t-79 -40.5q-53 0 -143 52q-38 21 -54.5 29t-36 15t-34.5 7q-60 0 -103 -119z" />
<glyph unicode="&#xf2;" horiz-adv-x="1189" d="M84 504q0 147 64.5 267.5t182.5 191.5t265 71q227 0 368.5 -148.5t141.5 -375.5q0 -230 -147.5 -382.5t-368.5 -152.5q-223 0 -364.5 149t-141.5 380zM152 504q0 -70 18 -137t55 -126t89 -103.5t124.5 -70.5t157.5 -26q84 0 156.5 27.5t124 74t88.5 107t55 126.5t18 132 q0 67 -16 131.5t-51.5 124.5t-86 105.5t-125 72.5t-163.5 27q-91 0 -166 -28t-125.5 -74t-86 -107t-51 -125.5t-15.5 -130.5zM301 1491l88 41q102 -199 246 -332l-43 -41q-185 146 -291 332z" />
<glyph unicode="&#xf3;" horiz-adv-x="1189" d="M84 504q0 147 64.5 267.5t182.5 191.5t265 71q227 0 368.5 -148.5t141.5 -375.5q0 -230 -147.5 -382.5t-368.5 -152.5q-223 0 -364.5 149t-141.5 380zM152 504q0 -70 18 -137t55 -126t89 -103.5t124.5 -70.5t157.5 -26q84 0 156.5 27.5t124 74t88.5 107t55 126.5t18 132 q0 67 -16 131.5t-51.5 124.5t-86 105.5t-125 72.5t-163.5 27q-91 0 -166 -28t-125.5 -74t-86 -107t-51 -125.5t-15.5 -130.5zM512 1200q146 135 244 332l90 -41q-111 -189 -291 -332z" />
<glyph unicode="&#xf4;" horiz-adv-x="1189" d="M84 504q0 147 64.5 267.5t182.5 191.5t265 71q227 0 368.5 -148.5t141.5 -375.5q0 -230 -147.5 -382.5t-368.5 -152.5q-223 0 -364.5 149t-141.5 380zM152 504q0 -70 18 -137t55 -126t89 -103.5t124.5 -70.5t157.5 -26q84 0 156.5 27.5t124 74t88.5 107t55 126.5t18 132 q0 67 -16 131.5t-51.5 124.5t-86 105.5t-125 72.5t-163.5 27q-91 0 -166 -28t-125.5 -74t-86 -107t-51 -125.5t-15.5 -130.5zM317 1188q145 139 248 328h74q87 -175 250 -328l-60 -23q-136 111 -233 250q-121 -171 -223 -250z" />
<glyph unicode="&#xf5;" horiz-adv-x="1189" d="M84 504q0 147 64.5 267.5t182.5 191.5t265 71q227 0 368.5 -148.5t141.5 -375.5q0 -230 -147.5 -382.5t-368.5 -152.5q-223 0 -364.5 149t-141.5 380zM152 504q0 -70 18 -137t55 -126t89 -103.5t124.5 -70.5t157.5 -26q84 0 156.5 27.5t124 74t88.5 107t55 126.5t18 132 q0 67 -16 131.5t-51.5 124.5t-86 105.5t-125 72.5t-163.5 27q-91 0 -166 -28t-125.5 -74t-86 -107t-51 -125.5t-15.5 -130.5zM301 1245q26 92 66 142.5t106 50.5q51 0 139 -52q80 -49 121 -49q25 0 41.5 27t40.5 92l66 -10q-34 -113 -66 -154t-80 -41q-53 0 -143 52 q-38 21 -54.5 29t-36 15t-34.5 7q-59 0 -102 -119z" />
<glyph unicode="&#xf6;" horiz-adv-x="1189" d="M84 504q0 147 64.5 267.5t182.5 191.5t265 71q227 0 368.5 -148.5t141.5 -375.5q0 -230 -147.5 -382.5t-368.5 -152.5q-223 0 -364.5 149t-141.5 380zM152 504q0 -70 18 -137t55 -126t89 -103.5t124.5 -70.5t157.5 -26q84 0 156.5 27.5t124 74t88.5 107t55 126.5t18 132 q0 67 -16 131.5t-51.5 124.5t-86 105.5t-125 72.5t-163.5 27q-91 0 -166 -28t-125.5 -74t-86 -107t-51 -125.5t-15.5 -130.5zM395 1286q0 28 19 48t49 20q28 0 46.5 -20.5t18.5 -47.5q0 -29 -19 -47t-46 -18q-30 0 -49 18t-19 47zM670 1286q0 29 18.5 48.5t48.5 19.5 q28 0 47 -20.5t19 -47.5q0 -28 -19.5 -46.5t-46.5 -18.5q-29 0 -48 18t-19 47z" />
<glyph unicode="&#xf7;" horiz-adv-x="845" d="M88 465v70h666v-70h-666zM356 205q0 28 20 47.5t48 19.5q26 0 45.5 -19.5t19.5 -47.5q0 -26 -19.5 -46t-45.5 -20q-28 0 -48 20t-20 46zM356 825q0 26 20 46t48 20q26 0 45.5 -20t19.5 -46q0 -28 -19.5 -47.5t-45.5 -19.5q-28 0 -48 19.5t-20 47.5z" />
<glyph unicode="&#xf8;" horiz-adv-x="1189" d="M18 -4l175 172q-109 140 -109 336q0 144 64.5 264t182.5 191t265 71q203 0 338 -119l149 150l56 -53l-150 -150q117 -142 117 -348q0 -144 -65.5 -265.5t-183 -193t-261.5 -71.5q-210 0 -352 133l-172 -172zM150 504q0 -156 90 -287l645 645q-122 103 -289 103 q-90 0 -166 -28t-126.5 -74.5t-86 -107t-51.5 -124t-16 -127.5zM293 160q125 -115 303 -115q105 0 191.5 42.5t139.5 110.5t82 148.5t29 161.5q0 174 -98 301z" />
<glyph unicode="&#xf9;" horiz-adv-x="1150" d="M0 946v66h225v-572q0 -188 49 -266q37 -64 118.5 -98.5t185.5 -34.5q98 0 177.5 37.5t121.5 101.5q49 78 49 260v570h65v-578q0 -175 -49 -270q-45 -86 -143.5 -136.5t-227.5 -50.5q-133 0 -230.5 46.5t-137.5 136.5q-43 94 -43 274v514h-160zM412 1491l88 41 q103 -201 245 -332l-43 -41q-183 145 -290 332z" />
<glyph unicode="&#xfa;" horiz-adv-x="1150" d="M0 946v66h225v-572q0 -188 49 -266q37 -64 118.5 -98.5t185.5 -34.5q98 0 177.5 37.5t121.5 101.5q49 78 49 260v570h65v-578q0 -175 -49 -270q-45 -86 -143.5 -136.5t-227.5 -50.5q-133 0 -230.5 46.5t-137.5 136.5q-43 94 -43 274v514h-160zM463 1200q146 135 244 332 l90 -41q-111 -189 -291 -332z" />
<glyph unicode="&#xfb;" horiz-adv-x="1150" d="M0 946v66h225v-572q0 -188 49 -266q37 -64 118.5 -98.5t185.5 -34.5q98 0 177.5 37.5t121.5 101.5q49 78 49 260v570h65v-578q0 -175 -49 -270q-45 -86 -143.5 -136.5t-227.5 -50.5q-133 0 -230.5 46.5t-137.5 136.5q-43 94 -43 274v514h-160zM301 1188q145 139 248 328 h74q88 -177 249 -328l-59 -23q-136 111 -233 250q-120 -170 -224 -250z" />
<glyph unicode="&#xfc;" horiz-adv-x="1150" d="M0 946v66h225v-572q0 -188 49 -266q37 -64 118.5 -98.5t185.5 -34.5q98 0 177.5 37.5t121.5 101.5q49 78 49 260v570h65v-578q0 -175 -49 -270q-45 -86 -143.5 -136.5t-227.5 -50.5q-133 0 -230.5 46.5t-137.5 136.5q-43 94 -43 274v514h-160zM387 1286q0 28 19 48t49 20 q28 0 46.5 -20.5t18.5 -47.5q0 -29 -19 -47t-46 -18q-30 0 -49 18t-19 47zM662 1286q0 29 18.5 48.5t48.5 19.5q28 0 47 -20.5t19 -47.5q0 -28 -19.5 -46.5t-46.5 -18.5q-29 0 -48 18t-19 47z" />
<glyph unicode="&#xfd;" horiz-adv-x="974" d="M-23 946v66h117q352 -811 412 -979q4 11 373 977h84l-478 -1196q-58 -143 -108 -213q-81 -113 -227 -113q-96 0 -150 25v81q66 -38 156 -38q110 0 163 79q49 67 105 207l63 158h-36l-410 946h-64zM395 1200q146 135 244 332l90 -41q-111 -189 -291 -332z" />
<glyph unicode="&#xfe;" horiz-adv-x="1159" d="M0 1296v66h240v-547q67 103 172 157t209 54q210 0 322 -133.5t112 -370.5q0 -114 -29.5 -206.5t-80 -154t-120 -103.5t-145.5 -60t-160 -18q-149 0 -280 43v-521h-66v1794h-174zM240 100q64 -27 129 -41t163 -14q95 0 176 29.5t144 87t99 151.5t36 215q0 196 -99 315.5 t-267 119.5q-100 0 -186 -50.5t-142 -134.5q-24 -37 -38.5 -92t-14.5 -106v-480z" />
<glyph unicode="&#xff;" horiz-adv-x="974" d="M-23 946v66h117q352 -811 412 -979q4 11 373 977h84l-478 -1196q-58 -143 -108 -213q-81 -113 -227 -113q-96 0 -150 25v81q66 -38 156 -38q110 0 163 79q49 67 105 207l63 158h-36l-410 946h-64zM305 1286q0 28 19 48t49 20q28 0 46.5 -20.5t18.5 -47.5q0 -29 -19 -47 t-46 -18q-30 0 -49 18t-19 47zM580 1286q0 29 18.5 48.5t48.5 19.5q28 0 47 -20.5t19 -47.5q0 -28 -19.5 -46.5t-46.5 -18.5q-29 0 -48 18t-19 47z" />
<glyph unicode="&#x100;" horiz-adv-x="1236" d="M18 0l539 1296h-162v66h250l574 -1362h-82l-203 485h-637l-203 -485h-76zM326 551h575q-245 605 -287 717q-1 -2 -24 -61t-95.5 -240t-168.5 -416zM326 1454v80h493v-80h-493z" />
<glyph unicode="&#x101;" horiz-adv-x="1019" d="M80 270q0 170 186 248q174 74 504 74v72q0 119 -16 176q-17 58 -74.5 91.5t-142.5 33.5q-161 0 -310 -78v-127h-65v168q176 102 364 102q273 0 305 -209q9 -69 9 -190v-484q0 -45 6 -63q3 -13 19 -22t38 -9q43 0 98 25v-74q-53 -24 -112 -24q-125 0 -123 170 q-20 -27 -49 -53.5t-73 -54.5t-107 -45t-134 -17q-153 0 -238 84.5t-85 205.5zM154 268q0 -102 72 -159.5t167 -57.5q212 0 344 156q33 39 33 139v182q-148 0 -281.5 -19.5t-209.5 -57.5q-65 -33 -95 -76t-30 -107zM272 1249v80h494v-80h-494z" />
<glyph unicode="&#x102;" horiz-adv-x="1236" d="M18 0l539 1296h-162v66h250l574 -1362h-82l-203 485h-637l-203 -485h-76zM326 551h575q-245 605 -287 717q-1 -2 -24 -61t-95.5 -240t-168.5 -416zM326 1714h71q3 -74 46.5 -111.5t152.5 -37.5q102 0 147 39t48 110h71q-6 -231 -270 -231q-139 0 -201 58.5t-65 172.5z " />
<glyph unicode="&#x103;" horiz-adv-x="1019" d="M80 270q0 170 186 248q174 74 504 74v72q0 119 -16 176q-17 58 -74.5 91.5t-142.5 33.5q-161 0 -310 -78v-127h-65v168q176 102 364 102q273 0 305 -209q9 -69 9 -190v-484q0 -45 6 -63q3 -13 19 -22t38 -9q43 0 98 25v-74q-53 -24 -112 -24q-125 0 -123 170 q-20 -27 -49 -53.5t-73 -54.5t-107 -45t-134 -17q-153 0 -238 84.5t-85 205.5zM154 268q0 -102 72 -159.5t167 -57.5q212 0 344 156q33 39 33 139v182q-148 0 -281.5 -19.5t-209.5 -57.5q-65 -33 -95 -76t-30 -107zM250 1444h72q2 -38 11.5 -71.5t30.5 -66t60.5 -52 t93.5 -19.5q51 0 90 20t60.5 52t32 66.5t12.5 70.5h71q-3 -121 -70 -205t-198 -84q-70 0 -122 24.5t-82 66.5t-45 91.5t-17 106.5z" />
<glyph unicode="&#x104;" horiz-adv-x="1236" d="M18 0l539 1296h-162v66h250l567 -1350h5l-3 -2l5 -10h-19q-124 -97 -167.5 -151t-43.5 -119q0 -47 31.5 -76t81.5 -29q80 0 139 33v-66q-62 -32 -135 -32q-103 0 -151 48t-48 120t57.5 145t170.5 129l-201 483h-637l-203 -485h-76zM326 551h575q-245 605 -287 717 q-1 -2 -24 -61t-95.5 -240t-168.5 -416z" />
<glyph unicode="&#x105;" horiz-adv-x="1019" d="M80 270q0 170 186 248q174 74 504 74v72q0 119 -16 176q-17 58 -74.5 91.5t-142.5 33.5q-161 0 -310 -78v-127h-65v168q176 102 364 102q273 0 305 -209q9 -69 9 -190v-484q0 -45 6 -63q3 -13 19 -22t38 -9q43 0 98 25v-74q-38 -14 -57 -18q-112 -89 -152 -141t-40 -115 q0 -47 31 -76t81 -29q81 0 140 33v-66q-62 -32 -136 -32q-103 0 -150.5 48t-47.5 120q0 65 47 132.5t141 123.5q-94 17 -92 166q-20 -27 -49 -53.5t-73 -54.5t-107 -45t-134 -17q-153 0 -238 84.5t-85 205.5zM154 268q0 -102 72 -159.5t167 -57.5q212 0 344 156 q33 39 33 139v182q-148 0 -281.5 -19.5t-209.5 -57.5q-65 -33 -95 -76t-30 -107z" />
<glyph unicode="&#x106;" horiz-adv-x="1341" d="M90 682q0 158 56 292t151.5 223.5t221 139t263.5 49.5q248 0 463 -102v-250h-65v199q-181 84 -404 84q-128 0 -240.5 -45.5t-195 -127t-130.5 -202t-48 -262.5q0 -132 42.5 -247.5t119.5 -202t194 -136t258 -49.5q154 0 289 45.5t205 93.5v-86q-219 -123 -502 -123 q-138 0 -252.5 41t-192 109.5t-131 160t-78 191.5t-24.5 205zM637 1524q185 83 342 233l72 -69q-168 -144 -385 -218z" />
<glyph unicode="&#x107;" horiz-adv-x="985" d="M84 506q0 150 59 269t174 189t269 70q149 0 293 -65v-168h-66v121q-115 47 -233 47q-91 0 -165.5 -27.5t-122.5 -73t-81 -106t-47 -123.5t-14 -129q0 -211 104.5 -340t304.5 -129q179 0 342 117v-78q-153 -105 -346 -105q-224 0 -347.5 145.5t-123.5 385.5zM485 1200 q146 135 244 332l90 -41q-111 -189 -291 -332z" />
<glyph unicode="&#x108;" horiz-adv-x="1341" d="M90 682q0 158 56 292t151.5 223.5t221 139t263.5 49.5q248 0 463 -102v-250h-65v199q-181 84 -404 84q-128 0 -240.5 -45.5t-195 -127t-130.5 -202t-48 -262.5q0 -132 42.5 -247.5t119.5 -202t194 -136t258 -49.5q154 0 289 45.5t205 93.5v-86q-219 -123 -502 -123 q-138 0 -252.5 41t-192 109.5t-131 160t-78 191.5t-24.5 205zM543 1473q89 72 144.5 136.5t100.5 157.5h76q43 -92 99 -156.5t147 -137.5l-53 -17q-121 59 -228 209q-110 -154 -233 -209z" />
<glyph unicode="&#x109;" horiz-adv-x="985" d="M84 506q0 150 59 269t174 189t269 70q149 0 293 -65v-168h-66v121q-115 47 -233 47q-91 0 -165.5 -27.5t-122.5 -73t-81 -106t-47 -123.5t-14 -129q0 -211 104.5 -340t304.5 -129q179 0 342 117v-78q-153 -105 -346 -105q-224 0 -347.5 145.5t-123.5 385.5zM305 1188 q145 139 248 328h74q87 -175 250 -328l-60 -23q-136 111 -233 250q-120 -170 -224 -250z" />
<glyph unicode="&#x10a;" horiz-adv-x="1341" d="M90 682q0 158 56 292t151.5 223.5t221 139t263.5 49.5q248 0 463 -102v-250h-65v199q-181 84 -404 84q-128 0 -240.5 -45.5t-195 -127t-130.5 -202t-48 -262.5q0 -132 42.5 -247.5t119.5 -202t194 -136t258 -49.5q154 0 289 45.5t205 93.5v-86q-219 -123 -502 -123 q-138 0 -252.5 41t-192 109.5t-131 160t-78 191.5t-24.5 205zM723 1520q0 27 18.5 47t44.5 20t47 -20.5t21 -46.5t-21 -46t-47 -20t-44.5 19.5t-18.5 46.5z" />
<glyph unicode="&#x10b;" horiz-adv-x="985" d="M84 506q0 150 59 269t174 189t269 70q149 0 293 -65v-168h-66v121q-115 47 -233 47q-91 0 -165.5 -27.5t-122.5 -73t-81 -106t-47 -123.5t-14 -129q0 -211 104.5 -340t304.5 -129q179 0 342 117v-78q-153 -105 -346 -105q-224 0 -347.5 145.5t-123.5 385.5zM516 1313 q0 27 18 47t44 20t46.5 -20.5t20.5 -46.5t-20 -45t-47 -19q-26 0 -44 19t-18 45z" />
<glyph unicode="&#x10c;" horiz-adv-x="1341" d="M90 682q0 158 56 292t151.5 223.5t221 139t263.5 49.5q248 0 463 -102v-250h-65v199q-181 84 -404 84q-128 0 -240.5 -45.5t-195 -127t-130.5 -202t-48 -262.5q0 -132 42.5 -247.5t119.5 -202t194 -136t258 -49.5q154 0 289 45.5t205 93.5v-86q-219 -123 -502 -123 q-138 0 -252.5 41t-192 109.5t-131 160t-78 191.5t-24.5 205zM502 1751l53 16q124 -59 233 -211q102 146 228 211l53 -16q-89 -72 -146 -138t-100 -157h-75q-45 92 -101.5 158t-144.5 137z" />
<glyph unicode="&#x10d;" horiz-adv-x="985" d="M84 506q0 150 59 269t174 189t269 70q149 0 293 -65v-168h-66v121q-115 47 -233 47q-91 0 -165.5 -27.5t-122.5 -73t-81 -106t-47 -123.5t-14 -129q0 -211 104.5 -340t304.5 -129q179 0 342 117v-78q-153 -105 -346 -105q-224 0 -347.5 145.5t-123.5 385.5zM285 1493 l59 23q138 -112 234 -250q129 177 223 250l55 -23q-142 -139 -248 -328h-73q-90 181 -250 328z" />
<glyph unicode="&#x10e;" horiz-adv-x="1429" d="M0 1296v66l616 6q251 0 420 -88q307 -167 307 -592q0 -134 -46 -260.5t-146.5 -232.5t-239.5 -152q-58 -20 -163.5 -31.5t-186.5 -11.5h-385v1296h-176zM248 66h305q75 0 187 13.5t169 33.5q166 65 261.5 221.5t95.5 349.5q0 300 -169 459.5t-479 159.5q-144 0 -370 -7 v-1230zM342 1751l53 16q125 -59 234 -211q103 147 227 211l53 -16q-88 -71 -145 -137t-100 -158h-76q-45 92 -101.5 158t-144.5 137z" />
<glyph unicode="&#x10f;" horiz-adv-x="1159" d="M84 483q0 149 59.5 269.5t180.5 195t286 74.5q187 0 310 -49v471h-185v65h250v-1509h-59v207q-49 -95 -151.5 -162.5t-235.5 -67.5q-125 0 -215.5 40t-141.5 112t-74.5 159.5t-23.5 194.5zM150 479q0 -194 96 -316t282 -122q105 0 196.5 52.5t135.5 125.5q60 94 60 209 v471q-104 59 -308 59q-113 0 -202 -38t-145 -104t-85.5 -152t-29.5 -185zM1069 1182q52 82 89 175.5t44 172.5l96 -6q-50 -212 -172 -367z" />
<glyph unicode="&#x110;" horiz-adv-x="1431" d="M0 674v78h176v544h-176v66l629 6q157 0 284.5 -39.5t225 -119.5t151 -212t53.5 -307q0 -128 -52 -258.5t-156.5 -239.5t-239.5 -155q-105 -37 -279 -37h-440v674h-176zM248 66h360q178 0 281 40q165 64 271 228.5t106 351.5q0 298 -170.5 457.5t-468.5 159.5 q-65 0 -201.5 -3t-177.5 -4v-544h420v-78h-420v-608z" />
<glyph unicode="&#x111;" horiz-adv-x="1159" d="M84 492q0 145 68.5 266.5t191 192.5t272.5 71q181 0 326 -43v197h-414v71h414v191h-166v71h232v-262h118v-71h-118v-1176h-62v207q-45 -97 -150.5 -163.5t-234.5 -66.5q-125 0 -219 41.5t-149 114.5t-82 163t-27 196zM150 489q0 -121 45 -221t138 -163.5t218 -63.5 q107 0 197 52.5t135 125.5q59 92 59 209v479q-122 51 -326 51q-201 0 -333.5 -138t-132.5 -331z" />
<glyph unicode="&#x112;" horiz-adv-x="1021" d="M0 1296v66h895v-66h-647v-559h612v-67h-612v-604h684v-66h-756v1296h-176zM305 1454v80h494v-80h-494z" />
<glyph unicode="&#x113;" horiz-adv-x="1105" d="M70 514q0 225 137 372.5t358 147.5q210 0 331.5 -122.5t121.5 -327.5q0 -33 -2 -49h-877q0 -227 109.5 -360.5t308.5 -133.5q82 0 148 13t118 41t79 47.5t69 54.5v-84q-160 -138 -412 -138q-118 0 -212.5 43.5t-154 118t-91 171t-31.5 206.5zM147 600h797 q0 155 -101.5 261t-277.5 106q-181 0 -291.5 -102.5t-126.5 -264.5zM338 1249v80h493v-80h-493z" />
<glyph unicode="&#x114;" horiz-adv-x="1021" d="M0 1296v66h895v-66h-647v-559h612v-67h-612v-604h684v-66h-756v1296h-176zM279 1688h71q3 -74 46.5 -112t152.5 -38q101 0 146 39.5t48 110.5h72q-6 -232 -270 -232q-139 0 -201 59t-65 173z" />
<glyph unicode="&#x115;" horiz-adv-x="1105" d="M70 514q0 225 137 372.5t358 147.5q210 0 331.5 -122.5t121.5 -327.5q0 -33 -2 -49h-877q0 -227 109.5 -360.5t308.5 -133.5q82 0 148 13t118 41t79 47.5t69 54.5v-84q-160 -138 -412 -138q-118 0 -212.5 43.5t-154 118t-91 171t-31.5 206.5zM147 600h797 q0 155 -101.5 261t-277.5 106q-181 0 -291.5 -102.5t-126.5 -264.5zM322 1444h71q2 -38 12 -71.5t30.5 -66t60.5 -52t94 -19.5q51 0 89.5 20t60 52t32 66.5t12.5 70.5h72q-3 -121 -70 -205t-198 -84q-70 0 -122 24.5t-82 66.5t-45 91.5t-17 106.5z" />
<glyph unicode="&#x116;" horiz-adv-x="1021" d="M0 1296v66h895v-66h-647v-559h612v-67h-612v-604h684v-66h-756v1296h-176zM494 1520q0 27 18.5 47t44.5 20t47 -20.5t21 -46.5t-21 -46t-47 -20t-44.5 19.5t-18.5 46.5z" />
<glyph unicode="&#x117;" horiz-adv-x="1105" d="M70 514q0 225 137 372.5t358 147.5q210 0 331.5 -122.5t121.5 -327.5q0 -33 -2 -49h-877q0 -227 109.5 -360.5t308.5 -133.5q82 0 148 13t118 41t79 47.5t69 54.5v-84q-160 -138 -412 -138q-118 0 -212.5 43.5t-154 118t-91 171t-31.5 206.5zM147 600h797 q0 155 -101.5 261t-277.5 106q-181 0 -291.5 -102.5t-126.5 -264.5zM516 1313q0 27 18 47t44 20t46.5 -20.5t20.5 -46.5t-20 -45t-47 -19q-26 0 -44 19t-18 45z" />
<glyph unicode="&#x118;" horiz-adv-x="1021" d="M0 1296v66h895v-66h-647v-559h612v-67h-612v-604h684v-66h-45q-124 -97 -167.5 -151t-43.5 -119q0 -47 31 -76t81 -29q81 0 140 33v-66q-62 -32 -135 -32q-103 0 -151 48t-48 120q0 71 55 144t166 128h-639v1296h-176z" />
<glyph unicode="&#x119;" horiz-adv-x="1105" d="M70 514q0 225 137 372.5t358 147.5q210 0 331.5 -122.5t121.5 -327.5q0 -33 -2 -49h-877q0 -227 109.5 -360.5t308.5 -133.5q82 0 148 13t118 41t79 47.5t69 54.5v-84q-123 -110 -316 -131q-109 -88 -147.5 -139t-38.5 -113q0 -47 31.5 -76t81.5 -29q80 0 139 33v-66 q-62 -32 -135 -32q-103 0 -151 48t-48 120q0 63 43.5 127.5t132.5 119.5h-4q-118 0 -212.5 43.5t-154 118t-91 171t-31.5 206.5zM147 600h797q0 155 -101.5 261t-277.5 106q-181 0 -291.5 -102.5t-126.5 -264.5z" />
<glyph unicode="&#x11a;" horiz-adv-x="1021" d="M0 1296v66h895v-66h-647v-559h612v-67h-612v-604h684v-66h-756v1296h-176zM268 1751l54 16q124 -59 233 -211q103 147 227 211l54 -16q-89 -72 -146 -138t-100 -157h-76q-45 92 -101.5 158t-144.5 137z" />
<glyph unicode="&#x11b;" horiz-adv-x="1105" d="M70 514q0 225 137 372.5t358 147.5q210 0 331.5 -122.5t121.5 -327.5q0 -33 -2 -49h-877q0 -227 109.5 -360.5t308.5 -133.5q82 0 148 13t118 41t79 47.5t69 54.5v-84q-160 -138 -412 -138q-118 0 -212.5 43.5t-154 118t-91 171t-31.5 206.5zM147 600h797 q0 155 -101.5 261t-277.5 106q-181 0 -291.5 -102.5t-126.5 -264.5zM287 1493l59 23q138 -112 234 -250q129 177 223 250l55 -23q-142 -139 -248 -328h-73q-90 181 -250 328z" />
<glyph unicode="&#x11c;" horiz-adv-x="1386" d="M90 682q0 159 55.5 293t150 223t218.5 138.5t262 49.5q258 0 465 -102v-250h-65v201q-186 82 -406 82q-127 0 -238.5 -45.5t-193 -127.5t-129 -202t-47.5 -262q0 -131 42.5 -246.5t120 -202t194.5 -136.5t259 -50q207 0 412 96v408h-387v65h461v-514q-51 -24 -81 -37 t-99 -38t-142.5 -37.5t-148.5 -12.5q-145 0 -264.5 41t-199.5 109.5t-135 160.5t-79.5 191t-24.5 205zM483 1473q89 72 145.5 137t100.5 157h76q43 -92 99 -156.5t147 -137.5l-54 -17q-120 58 -227 209q-110 -154 -233 -209z" />
<glyph unicode="&#x11d;" horiz-adv-x="1046" d="M43 -229q0 87 62 157t194 111q-127 33 -127 149q0 48 37.5 91.5t97.5 68.5q-91 43 -138.5 125t-47.5 182q0 147 106 251t293 104h463v-66q-211 0 -254 6q79 -43 117.5 -120.5t38.5 -163.5q0 -69 -25.5 -132t-72.5 -112.5t-121.5 -79t-165.5 -29.5q-84 0 -111 2 q-153 -28 -153 -120q0 -60 65 -84.5t219 -34.5q150 -9 228 -24.5t141 -51.5q102 -55 102 -203q0 -131 -129 -223t-346 -92q-218 0 -345.5 75t-127.5 214zM113 -229q0 -111 109.5 -166.5t297.5 -55.5q182 0 294 70.5t112 183.5q0 97 -82 144q-47 26 -159.5 44.5t-201.5 18.5 q-68 0 -131 -16q-106 -26 -172.5 -84.5t-66.5 -138.5zM190 655q0 -126 82 -200t234 -74q145 0 228 83t83 198q0 131 -78.5 205.5t-234.5 74.5q-79 0 -141 -25.5t-98.5 -67t-55.5 -91.5t-19 -103zM233 1188q145 139 248 328h74q87 -175 250 -328l-60 -23q-136 111 -233 250 q-121 -171 -223 -250z" />
<glyph unicode="&#x11e;" horiz-adv-x="1386" d="M90 682q0 159 55.5 293t150 223t218.5 138.5t262 49.5q258 0 465 -102v-250h-65v201q-186 82 -406 82q-127 0 -238.5 -45.5t-193 -127.5t-129 -202t-47.5 -262q0 -131 42.5 -246.5t120 -202t194.5 -136.5t259 -50q207 0 412 96v408h-387v65h461v-514q-51 -24 -81 -37 t-99 -38t-142.5 -37.5t-148.5 -12.5q-145 0 -264.5 41t-199.5 109.5t-135 160.5t-79.5 191t-24.5 205zM512 1688h72q3 -74 46.5 -112t151.5 -38q188 0 195 150h72q-6 -232 -271 -232q-139 0 -201 59t-65 173z" />
<glyph unicode="&#x11f;" horiz-adv-x="1046" d="M43 -229q0 87 62 157t194 111q-127 33 -127 149q0 48 37.5 91.5t97.5 68.5q-91 43 -138.5 125t-47.5 182q0 147 106 251t293 104h463v-66q-211 0 -254 6q79 -43 117.5 -120.5t38.5 -163.5q0 -69 -25.5 -132t-72.5 -112.5t-121.5 -79t-165.5 -29.5q-84 0 -111 2 q-153 -28 -153 -120q0 -60 65 -84.5t219 -34.5q150 -9 228 -24.5t141 -51.5q102 -55 102 -203q0 -131 -129 -223t-346 -92q-218 0 -345.5 75t-127.5 214zM113 -229q0 -111 109.5 -166.5t297.5 -55.5q182 0 294 70.5t112 183.5q0 97 -82 144q-47 26 -159.5 44.5t-201.5 18.5 q-68 0 -131 -16q-106 -26 -172.5 -84.5t-66.5 -138.5zM190 655q0 -126 82 -200t234 -74q145 0 228 83t83 198q0 131 -78.5 205.5t-234.5 74.5q-79 0 -141 -25.5t-98.5 -67t-55.5 -91.5t-19 -103zM274 1444h72q2 -38 12 -71.5t30.5 -66t60.5 -52t94 -19.5q51 0 89.5 20t60 52 t32 66.5t12.5 70.5h72q-3 -121 -70 -205t-198 -84q-70 0 -122.5 24.5t-82.5 66.5t-45 91.5t-17 106.5z" />
<glyph unicode="&#x120;" horiz-adv-x="1386" d="M90 682q0 159 55.5 293t150 223t218.5 138.5t262 49.5q258 0 465 -102v-250h-65v201q-186 82 -406 82q-127 0 -238.5 -45.5t-193 -127.5t-129 -202t-47.5 -262q0 -131 42.5 -246.5t120 -202t194.5 -136.5t259 -50q207 0 412 96v408h-387v65h461v-514q-51 -24 -81 -37 t-99 -38t-142.5 -37.5t-148.5 -12.5q-145 0 -264.5 41t-199.5 109.5t-135 160.5t-79.5 191t-24.5 205zM700 1520q0 27 19 47t45 20t46.5 -20.5t20.5 -46.5t-20.5 -46t-46.5 -20t-45 20t-19 46z" />
<glyph unicode="&#x121;" horiz-adv-x="1046" d="M43 -229q0 87 62 157t194 111q-127 33 -127 149q0 48 37.5 91.5t97.5 68.5q-91 43 -138.5 125t-47.5 182q0 147 106 251t293 104h463v-66q-211 0 -254 6q79 -43 117.5 -120.5t38.5 -163.5q0 -69 -25.5 -132t-72.5 -112.5t-121.5 -79t-165.5 -29.5q-84 0 -111 2 q-153 -28 -153 -120q0 -60 65 -84.5t219 -34.5q150 -9 228 -24.5t141 -51.5q102 -55 102 -203q0 -131 -129 -223t-346 -92q-218 0 -345.5 75t-127.5 214zM113 -229q0 -111 109.5 -166.5t297.5 -55.5q182 0 294 70.5t112 183.5q0 97 -82 144q-47 26 -159.5 44.5t-201.5 18.5 q-68 0 -131 -16q-106 -26 -172.5 -84.5t-66.5 -138.5zM190 655q0 -126 82 -200t234 -74q145 0 228 83t83 198q0 131 -78.5 205.5t-234.5 74.5q-79 0 -141 -25.5t-98.5 -67t-55.5 -91.5t-19 -103zM483 1313q0 27 18 47t44 20t46.5 -20.5t20.5 -46.5t-20 -45t-47 -19 q-26 0 -44 19t-18 45z" />
<glyph unicode="&#x122;" horiz-adv-x="1386" d="M90 682q0 159 55.5 293t150 223t218.5 138.5t262 49.5q258 0 465 -102v-250h-65v201q-186 82 -406 82q-127 0 -238.5 -45.5t-193 -127.5t-129 -202t-47.5 -262q0 -131 42.5 -246.5t120 -202t194.5 -136.5t259 -50q207 0 412 96v408h-387v65h461v-514q-51 -24 -81 -37 t-99 -38t-142.5 -37.5t-148.5 -12.5q-145 0 -264.5 41t-199.5 109.5t-135 160.5t-79.5 191t-24.5 205zM551 -442q53 79 90 173t43 171l96 -4q-45 -202 -172 -367z" />
<glyph unicode="&#x123;" horiz-adv-x="1046" d="M43 -229q0 87 62 157t194 111q-127 33 -127 149q0 48 37.5 91.5t97.5 68.5q-91 43 -138.5 125t-47.5 182q0 147 106 251t293 104h463v-66q-211 0 -254 6q79 -43 117.5 -120.5t38.5 -163.5q0 -69 -25.5 -132t-72.5 -112.5t-121.5 -79t-165.5 -29.5q-84 0 -111 2 q-153 -28 -153 -120q0 -60 65 -84.5t219 -34.5q150 -9 228 -24.5t141 -51.5q102 -55 102 -203q0 -131 -129 -223t-346 -92q-218 0 -345.5 75t-127.5 214zM113 -229q0 -111 109.5 -166.5t297.5 -55.5q182 0 294 70.5t112 183.5q0 97 -82 144q-47 26 -159.5 44.5t-201.5 18.5 q-68 0 -131 -16q-106 -26 -172.5 -84.5t-66.5 -138.5zM190 655q0 -126 82 -200t234 -74q145 0 228 83t83 198q0 131 -78.5 205.5t-234.5 74.5q-79 0 -141 -25.5t-98.5 -67t-55.5 -91.5t-19 -103zM467 1120q45 202 172 367l57 -27q-53 -79 -90 -173t-43 -171z" />
<glyph unicode="&#x124;" horiz-adv-x="1431" d="M-2 1296v66h248v-631h936v631h71v-1362h-71v666h-936v-666h-72v1296h-176zM440 1473q89 72 145.5 137t100.5 157h76q43 -92 99 -156.5t147 -137.5l-54 -17q-120 58 -227 209q-110 -154 -233 -209z" />
<glyph unicode="&#x125;" horiz-adv-x="1167" d="M-160 1516q78 73 135.5 148.5t116.5 180.5h74q86 -174 252 -329l-60 -23q-136 108 -235 252q-124 -174 -225 -252zM0 1444v65h240v-723q49 99 156.5 170.5t244.5 71.5q241 0 334 -184q35 -71 35 -246v-598h-66v592q0 167 -39 239q-69 132 -258 132q-100 0 -201.5 -54 t-158.5 -151q-47 -81 -47 -189v-569h-66v1444h-174z" />
<glyph unicode="&#x126;" horiz-adv-x="1431" d="M0 1292v70h248v-277h936v277h71v-277h156v-71h-156v-1014h-71v659h-936v-659h-72v1014h-153v71h153v207h-176zM248 731h936v283h-936v-283z" />
<glyph unicode="&#x127;" horiz-adv-x="1167" d="M0 1440v69h240v-303h432v-69h-432v-340q48 96 155.5 163.5t245.5 67.5q241 0 334 -184q35 -71 35 -246v-598h-66v592q0 167 -39 239q-69 132 -258 132q-100 0 -201.5 -54t-158.5 -151q-47 -81 -47 -189v-569h-66v1137h-162v69h162v234h-174z" />
<glyph unicode="&#x128;" d="M-135 1442q26 92 66 142t106 50q56 0 139 -49q80 -49 121 -49q25 0 41.5 27t40.5 92l65 -10q-34 -114 -65.5 -154.5t-79.5 -40.5q-55 0 -143 51q-38 21 -54.5 29t-36 15t-34.5 7q-60 0 -103 -120zM0 1296v66h250v-1362h-74v1296h-176z" />
<glyph unicode="&#x129;" horiz-adv-x="399" d="M-135 1245q26 92 66 142.5t106 50.5q51 0 139 -52q80 -49 121 -49q25 0 41.5 27t40.5 92l65 -10q-34 -114 -66 -154.5t-79 -40.5q-53 0 -143 52q-38 21 -54.5 29t-36 15t-34.5 7q-60 0 -103 -119zM0 940v70h242v-1010h-68v940h-174z" />
<glyph unicode="&#x12a;" d="M-90 1454v80h493v-80h-493zM0 1296v66h250v-1362h-74v1296h-176z" />
<glyph unicode="&#x12b;" horiz-adv-x="399" d="M-98 1249v80h493v-80h-493zM0 940v70h242v-1010h-68v940h-174z" />
<glyph unicode="&#x12c;" d="M-100 1688h71q3 -74 46.5 -112t152.5 -38q188 0 195 150h71q-6 -232 -270 -232q-139 0 -201 59t-65 173zM0 1296v66h250v-1362h-74v1296h-176z" />
<glyph unicode="&#x12d;" horiz-adv-x="399" d="M-94 1444h71q2 -38 12 -71.5t30.5 -66t60.5 -52t94 -19.5q51 0 90 20t60.5 52t32 66.5t12.5 70.5h71q-3 -121 -70 -205t-198 -84q-70 0 -122 24.5t-82 66.5t-45 91.5t-17 106.5zM0 940v70h242v-1010h-68v940h-174z" />
<glyph unicode="&#x12e;" d="M-57 -272q0 72 58 146.5t175 131.5v1290h-176v66h250v-1350h2l-2 -2v-10h-14q-124 -97 -167.5 -151t-43.5 -119q0 -47 31 -76t81 -29q80 0 139 33v-66q-62 -32 -135 -32q-103 0 -150.5 48t-47.5 120z" />
<glyph unicode="&#x12f;" horiz-adv-x="399" d="M-66 -272q0 74 60 149t180 131v938h-174v66h242v-1000h2l-2 -2v-10h-15q-124 -97 -167.5 -151t-43.5 -119q0 -47 31.5 -76t81.5 -29q80 0 139 33v-66q-62 -32 -135 -32q-103 0 -151 48t-48 120zM139 1303q0 29 18.5 48t49.5 19q28 0 46.5 -20t18.5 -47q0 -29 -19 -47.5 t-46 -18.5q-31 0 -49.5 18.5t-18.5 47.5z" />
<glyph unicode="&#x130;" d="M0 1296v66h250v-1362h-74v1296h-176zM150 1520q0 27 18.5 47t44.5 20t47 -20.5t21 -46.5t-21 -46t-47 -20t-44.5 19.5t-18.5 46.5z" />
<glyph unicode="&#x131;" horiz-adv-x="399" d="M0 940v70h242v-1010h-68v940h-174z" />
<glyph unicode="&#x132;" horiz-adv-x="1120" d="M0 1292v70h250v-1198h-74v1128h-176zM176 39v72q42 -19 183.5 -42.5t222.5 -23.5q201 0 258 137q32 76 32 213v901h-448v66h520v-959q0 -149 -37 -237q-37 -86 -122 -136t-214 -50q-93 0 -225.5 21t-169.5 38z" />
<glyph unicode="&#x133;" horiz-adv-x="770" d="M0 946v66h242v-1012h-68v946h-174zM139 1303q0 29 18.5 48t49.5 19q28 0 46.5 -20t18.5 -47q0 -29 -19 -47.5t-46 -18.5q-31 0 -49.5 18.5t-18.5 47.5zM291 -457q10 0 31.5 -2t33.5 -2q72 0 112 53.5t52 137.5q8 63 8 184v1032h-174v66h242v-1125q0 -117 -6 -166 q-14 -116 -76 -181.5t-168 -65.5q-8 0 -27 2t-28 2v65zM494 1303q0 29 18 48t49 19q28 0 47 -20t19 -47q0 -29 -19.5 -47.5t-46.5 -18.5q-29 0 -48 18.5t-19 47.5z" />
<glyph unicode="&#x134;" horiz-adv-x="768" d="M59 1473q89 72 145.5 137t100.5 157h76q43 -92 99 -156.5t147 -137.5l-54 -17q-120 58 -227 209q-110 -154 -233 -209zM66 4v250h65v-197q57 -14 131 -14q81 0 141.5 38t85.5 103q31 80 31 211v901h-438v66h510v-956q0 -151 -35 -232q-35 -89 -114.5 -143t-186.5 -54 q-122 0 -190 27z" />
<glyph unicode="&#x135;" horiz-adv-x="413" d="M-129 1214q143 143 248 330h74q90 -181 249 -330l-59 -20q-136 111 -233 250q-127 -176 -224 -250zM-63 -457q10 0 31.5 -2t33.5 -2q72 0 112 53.5t52 137.5q8 63 8 184v1028h-174v70h242v-1125q0 -117 -6 -166q-14 -116 -76 -181.5t-168 -65.5q-8 0 -27 2t-28 2v65z" />
<glyph unicode="&#x136;" horiz-adv-x="1005" d="M0 1296v66h250v-647l647 647h107l-656 -647l713 -715h-117l-694 702v-702h-70v1296h-180zM397 -442q53 79 90 173t43 171l97 -4q-45 -202 -172 -367z" />
<glyph unicode="&#x137;" horiz-adv-x="925" d="M0 1444v65h242v-1509h-68v1444h-174zM242 539v6l2 -4zM244 541l499 469h117l-516 -463l584 -547h-107zM330 -442q53 79 90 173t43 171l96 -4q-45 -202 -172 -367z" />
<glyph unicode="&#x138;" horiz-adv-x="925" d="M0 942v70h242v-1012h-68v942h-174zM242 535v14l6 -8zM248 541l500 469h108l-502 -473l578 -537h-107z" />
<glyph unicode="&#x139;" horiz-adv-x="972" d="M-23 1524q185 83 342 233l72 -69q-168 -144 -385 -218zM0 1296v66h250v-1296h704v-66h-774v1296h-180z" />
<glyph unicode="&#x13a;" horiz-adv-x="411" d="M-31 1606q185 83 342 233l72 -70q-166 -143 -385 -217zM0 1444v65h242v-1370q0 -45 8 -61q12 -27 57 -27q40 0 92 25v-70q-54 -26 -102 -26q-76 0 -107 49q-16 27 -16 108v1307h-174z" />
<glyph unicode="&#x13b;" horiz-adv-x="972" d="M0 1296v66h250v-1296h704v-66h-774v1296h-180zM422 -442q53 79 90 173t43 171l96 -4q-45 -202 -172 -367z" />
<glyph unicode="&#x13c;" horiz-adv-x="411" d="M0 1444v65h242v-1370q0 -45 8 -61q12 -27 57 -27q40 0 92 25v-70q-54 -26 -102 -26q-76 0 -107 49q-16 27 -16 108v1307h-174zM119 -442q53 79 90 173t43 171l96 -4q-45 -202 -172 -367z" />
<glyph unicode="&#x13d;" horiz-adv-x="972" d="M0 1296v66h250v-1296h704v-66h-774v1296h-180zM383 1055q53 79 90 173t43 171l96 -4q-45 -202 -172 -367z" />
<glyph unicode="&#x13e;" horiz-adv-x="411" d="M0 1444v65h242v-1370q0 -45 8 -61q12 -27 57 -27q40 0 92 25v-70q-54 -26 -102 -26q-76 0 -107 49q-16 27 -16 108v1307h-174zM330 1186q52 82 89 175.5t44 172.5l96 -6q-50 -212 -172 -367z" />
<glyph unicode="&#x13f;" horiz-adv-x="972" d="M0 1296v66h250v-1296h704v-66h-774v1296h-180zM623 547q0 27 18.5 47t44.5 20t47 -20.5t21 -46.5t-21 -46t-47 -20t-44.5 19.5t-18.5 46.5z" />
<glyph unicode="&#x140;" horiz-adv-x="368" d="M0 1444v65h242v-1370q0 -45 8 -61q12 -27 57 -27q40 0 92 25v-70q-54 -26 -102 -26q-76 0 -107 49q-16 27 -16 108v1307h-174zM334 524q0 27 17.5 47.5t43.5 20.5t47 -21t21 -47t-20.5 -44.5t-47.5 -18.5q-26 0 -43.5 18.5t-17.5 44.5z" />
<glyph unicode="&#x141;" horiz-adv-x="972" d="M-39 397l219 217v682h-180v66h250v-678l168 168l59 -59l-227 -226v-501h704v-66h-774v498l-160 -160z" />
<glyph unicode="&#x142;" horiz-adv-x="411" d="M-51 375l225 225v844h-174v65h242v-841l164 163l55 -55l-219 -217v-426q0 -39 4 -49q12 -33 47 -33q25 0 88 25v-66q-54 -26 -98 -26q-16 0 -26.5 1t-28 9t-28.5 22t-19.5 43t-8.5 70l2 363l-170 -170z" />
<glyph unicode="&#x143;" horiz-adv-x="1419" d="M0 1296v66h188q420 -500 675 -804.5t300 -359.5l45 -55v1219h72v-1362h-35l-1036 1239v-1239h-72v1296h-137zM559 1524q185 83 342 233l72 -69q-168 -144 -385 -218z" />
<glyph unicode="&#x144;" horiz-adv-x="1167" d="M0 944v66h238v-213q41 95 152 163t249 68q248 0 336 -184q35 -71 35 -246v-598h-66v590q0 169 -39 241q-69 132 -258 132q-100 0 -201.5 -54t-158.5 -151q-47 -81 -47 -189v-569h-66v944h-174zM455 1200q144 133 243 332l90 -41q-112 -191 -290 -332z" />
<glyph unicode="&#x145;" horiz-adv-x="1419" d="M0 1296v66h188q420 -500 675 -804.5t300 -359.5l45 -55v1219h72v-1362h-35l-1036 1239v-1239h-72v1296h-137zM557 -442q53 79 90 173t43 171l96 -4q-45 -202 -172 -367z" />
<glyph unicode="&#x146;" horiz-adv-x="1167" d="M0 944v66h238v-213q41 95 152 163t249 68q248 0 336 -184q35 -71 35 -246v-598h-66v590q0 169 -39 241q-69 132 -258 132q-100 0 -201.5 -54t-158.5 -151q-47 -81 -47 -189v-569h-66v944h-174zM422 -442q53 79 90 173t43 171l96 -4q-45 -202 -172 -367z" />
<glyph unicode="&#x147;" horiz-adv-x="1419" d="M0 1296v66h188q420 -500 675 -804.5t300 -359.5l45 -55v1219h72v-1362h-35l-1036 1239v-1239h-72v1296h-137zM438 1751l54 16q124 -59 233 -211q103 147 227 211l54 -16q-89 -72 -146 -138t-100 -157h-76q-45 92 -101.5 158t-144.5 137z" />
<glyph unicode="&#x148;" horiz-adv-x="1167" d="M0 944v66h238v-213q41 95 152 163t249 68q248 0 336 -184q35 -71 35 -246v-598h-66v590q0 169 -39 241q-69 132 -258 132q-100 0 -201.5 -54t-158.5 -151q-47 -81 -47 -189v-569h-66v944h-174zM311 1493l60 23q136 -111 233 -250q129 177 223 250l56 -23 q-142 -139 -248 -328h-74q-90 181 -250 328z" />
<glyph unicode="&#x149;" horiz-adv-x="1167" d="M0 944v66h238v-213q41 95 152 163t249 68q248 0 336 -184q35 -71 35 -246v-598h-66v590q0 169 -39 241q-69 132 -258 132q-100 0 -201.5 -54t-158.5 -151q-47 -81 -47 -189v-569h-66v944h-174zM20 1114q67 186 78 340h82q-11 -83 -40 -174t-62 -160z" />
<glyph unicode="&#x14a;" horiz-adv-x="1419" d="M0 1292v70h188q909 -1073 1020 -1206v1206h72v-1458q0 -153 -35 -234q-35 -88 -114.5 -142t-186.5 -54q-129 0 -190 26v74q91 -33 194 -33q81 0 138.5 37.5t82.5 104.5q37 95 37 217v145q-336 389 -639 750t-358 434v-1229h-72v1292h-137z" />
<glyph unicode="&#x14b;" horiz-adv-x="1167" d="M0 942v70h238v-215q48 101 154.5 166t246.5 65q243 0 336 -184q35 -71 35 -246v-711q0 -413 -250 -413q-8 0 -28 2t-30 2v65q12 0 34.5 -2t33.5 -2q34 0 61.5 13.5t45.5 34.5t31 54t20 63t10.5 71.5t4.5 70.5t1 68v676q0 169 -39 241q-69 132 -258 132q-100 0 -201.5 -54 t-158.5 -151q-47 -81 -47 -189v-569h-66v942h-174z" />
<glyph unicode="&#x14c;" horiz-adv-x="1533" d="M88 684q0 158 55.5 291.5t149.5 222.5t218.5 138.5t262.5 49.5t259.5 -47.5t213.5 -135.5t145.5 -222.5t53.5 -298.5q0 -104 -27.5 -205.5t-85 -192t-138 -159.5t-193.5 -109.5t-244 -40.5q-129 0 -239.5 39.5t-188.5 107t-133.5 158t-82 193t-26.5 211.5zM162 684 q0 -184 76.5 -330t215 -228.5t312.5 -82.5q171 0 309 81t216.5 228t78.5 332q0 143 -48 263.5t-130 201t-192 125.5t-234 45q-264 0 -434 -175.5t-170 -459.5zM518 1454v80h494v-80h-494z" />
<glyph unicode="&#x14d;" horiz-adv-x="1189" d="M84 504q0 147 64.5 267.5t182.5 191.5t265 71q227 0 368.5 -148.5t141.5 -375.5q0 -230 -147.5 -382.5t-368.5 -152.5q-223 0 -364.5 149t-141.5 380zM152 504q0 -70 18 -137t55 -126t89 -103.5t124.5 -70.5t157.5 -26q84 0 156.5 27.5t124 74t88.5 107t55 126.5t18 132 q0 67 -16 131.5t-51.5 124.5t-86 105.5t-125 72.5t-163.5 27q-91 0 -166 -28t-125.5 -74t-86 -107t-51 -125.5t-15.5 -130.5zM362 1249v80h494v-80h-494z" />
<glyph unicode="&#x14e;" horiz-adv-x="1533" d="M88 684q0 158 55.5 291.5t149.5 222.5t218.5 138.5t262.5 49.5t259.5 -47.5t213.5 -135.5t145.5 -222.5t53.5 -298.5q0 -104 -27.5 -205.5t-85 -192t-138 -159.5t-193.5 -109.5t-244 -40.5q-129 0 -239.5 39.5t-188.5 107t-133.5 158t-82 193t-26.5 211.5zM162 684 q0 -184 76.5 -330t215 -228.5t312.5 -82.5q171 0 309 81t216.5 228t78.5 332q0 143 -48 263.5t-130 201t-192 125.5t-234 45q-264 0 -434 -175.5t-170 -459.5zM494 1688h71q3 -74 46.5 -112t152.5 -38q101 0 146 39.5t48 110.5h72q-6 -232 -270 -232q-139 0 -201 59t-65 173 z" />
<glyph unicode="&#x14f;" horiz-adv-x="1189" d="M84 504q0 147 64.5 267.5t182.5 191.5t265 71q227 0 368.5 -148.5t141.5 -375.5q0 -230 -147.5 -382.5t-368.5 -152.5q-223 0 -364.5 149t-141.5 380zM152 504q0 -70 18 -137t55 -126t89 -103.5t124.5 -70.5t157.5 -26q84 0 156.5 27.5t124 74t88.5 107t55 126.5t18 132 q0 67 -16 131.5t-51.5 124.5t-86 105.5t-125 72.5t-163.5 27q-91 0 -166 -28t-125.5 -74t-86 -107t-51 -125.5t-15.5 -130.5zM330 1444h71q2 -38 12 -71.5t30.5 -66t60.5 -52t94 -19.5q51 0 90 20t60.5 52t32 66.5t12.5 70.5h71q-3 -121 -70 -205t-198 -84q-70 0 -122 24.5 t-82 66.5t-45 91.5t-17 106.5z" />
<glyph unicode="&#x150;" horiz-adv-x="1533" d="M88 684q0 158 55.5 291.5t149.5 222.5t218.5 138.5t262.5 49.5t259.5 -47.5t213.5 -135.5t145.5 -222.5t53.5 -298.5q0 -104 -27.5 -205.5t-85 -192t-138 -159.5t-193.5 -109.5t-244 -40.5q-129 0 -239.5 39.5t-188.5 107t-133.5 158t-82 193t-26.5 211.5zM162 684 q0 -184 76.5 -330t215 -228.5t312.5 -82.5q171 0 309 81t216.5 228t78.5 332q0 143 -48 263.5t-130 201t-192 125.5t-234 45q-264 0 -434 -175.5t-170 -459.5zM535 1509q183 79 344 230l69 -72q-166 -141 -389 -215zM782 1509q182 79 346 230l70 -72q-163 -139 -389 -215z " />
<glyph unicode="&#x151;" horiz-adv-x="1189" d="M84 504q0 147 64.5 267.5t182.5 191.5t265 71q227 0 368.5 -148.5t141.5 -375.5q0 -230 -147.5 -382.5t-368.5 -152.5q-223 0 -364.5 149t-141.5 380zM152 504q0 -70 18 -137t55 -126t89 -103.5t124.5 -70.5t157.5 -26q84 0 156.5 27.5t124 74t88.5 107t55 126.5t18 132 q0 67 -16 131.5t-51.5 124.5t-86 105.5t-125 72.5t-163.5 27q-91 0 -166 -28t-125.5 -74t-86 -107t-51 -125.5t-15.5 -130.5zM414 1202q150 138 248 330l86 -35q-119 -204 -293 -338zM666 1202q151 136 247 330l88 -35q-117 -200 -292 -338z" />
<glyph unicode="&#x152;" horiz-adv-x="2222" d="M88 684q0 158 55.5 291.5t149.5 222.5t218.5 138.5t262.5 49.5q192 0 351 -88.5t249 -250.5v315h748v-168h-66v100h-608v-557h631v-69h-631v-600h682v-68h-756v334q-88 -164 -245.5 -261.5t-370.5 -97.5q-129 0 -239.5 39.5t-188.5 107t-133.5 158t-82 193t-26.5 211.5z M162 684q0 -183 76.5 -329t214.5 -228t313 -82q129 0 240.5 46t192.5 128.5t127 202.5t46 262q0 145 -47.5 265t-130 200t-193 124t-235.5 44q-173 0 -310 -77.5t-215.5 -222.5t-78.5 -333z" />
<glyph unicode="&#x153;" horiz-adv-x="2068" d="M84 504q0 147 64.5 267.5t182.5 191.5t265 71q172 0 295 -85t176 -234q53 147 172 233t281 86q232 0 350 -143q117 -142 117 -334v-25h-889q0 -219 113 -355t311 -136q66 0 125 11.5t95 24t79.5 40.5t59 40t52.5 44v-88q-160 -138 -409 -138q-175 0 -293 91.5t-168 240.5 q-56 -152 -182.5 -242t-292.5 -90q-223 0 -363.5 149t-140.5 380zM152 504q0 -70 18 -137t55 -126t89 -103.5t124.5 -70.5t157.5 -26q84 0 157 27.5t124 74t87.5 107t54 125.5t17.5 131q0 67 -16 132t-51 125.5t-85 106t-124.5 72.5t-163.5 27q-91 0 -166 -28t-125.5 -74 t-86 -107t-51 -125.5t-15.5 -130.5zM1108 602h801q-4 75 -29.5 140t-72 115.5t-118.5 80t-161 29.5q-174 0 -288 -104t-132 -261z" />
<glyph unicode="&#x154;" horiz-adv-x="1222" d="M0 1296v66l510 8q199 0 272 -20q109 -32 173.5 -125t64.5 -221q0 -77 -32.5 -145t-84.5 -111q-91 -73 -205 -89q32 -7 53 -17t48 -36q44 -38 104 -129l309 -477h-88l-243 375q-91 140 -172 203q-84 65 -211 65h-250v-643h-72v1296h-176zM248 715h301q158 0 239 37 q71 34 113.5 98.5t42.5 155.5q0 98 -51.5 172.5t-130.5 103.5q-60 21 -254 21l-260 -7v-581zM365 1524q185 83 342 233l71 -69q-168 -144 -385 -218z" />
<glyph unicode="&#x155;" horiz-adv-x="788" d="M0 946v66h238v-238q31 105 122 178.5t215 73.5q126 0 207 -55l-47 -68q-63 53 -166 53q-61 0 -115.5 -26.5t-92 -69t-63 -90t-38.5 -96.5q-20 -91 -20 -264v-410h-66v946h-174zM352 1200q146 135 244 332l90 -41q-111 -189 -291 -332z" />
<glyph unicode="&#x156;" horiz-adv-x="1222" d="M0 1296v66l510 8q199 0 272 -20q109 -32 173.5 -125t64.5 -221q0 -77 -32.5 -145t-84.5 -111q-91 -73 -205 -89q32 -7 53 -17t48 -36q44 -38 104 -129l309 -477h-88l-243 375q-91 140 -172 203q-84 65 -211 65h-250v-643h-72v1296h-176zM248 715h301q158 0 239 37 q71 34 113.5 98.5t42.5 155.5q0 98 -51.5 172.5t-130.5 103.5q-60 21 -254 21l-260 -7v-581zM449 -442q53 79 90 173t43 171l96 -4q-45 -202 -172 -367z" />
<glyph unicode="&#x157;" horiz-adv-x="788" d="M0 946v66h238v-238q31 105 122 178.5t215 73.5q126 0 207 -55l-47 -68q-63 53 -166 53q-61 0 -115.5 -26.5t-92 -69t-63 -90t-38.5 -96.5q-20 -91 -20 -264v-410h-66v946h-174zM25 -442q53 79 90 173t43 171l96 -4q-45 -202 -172 -367z" />
<glyph unicode="&#x158;" horiz-adv-x="1222" d="M0 1296v66l510 8q199 0 272 -20q109 -32 173.5 -125t64.5 -221q0 -77 -32.5 -145t-84.5 -111q-91 -73 -205 -89q32 -7 53 -17t48 -36q44 -38 104 -129l309 -477h-88l-243 375q-91 140 -172 203q-84 65 -211 65h-250v-643h-72v1296h-176zM248 715h301q158 0 239 37 q71 34 113.5 98.5t42.5 155.5q0 98 -51.5 172.5t-130.5 103.5q-60 21 -254 21l-260 -7v-581zM250 1751l53 16q125 -59 234 -211q103 147 227 211l53 -16q-89 -72 -146 -138t-100 -157h-75q-45 92 -101.5 158t-144.5 137z" />
<glyph unicode="&#x159;" horiz-adv-x="788" d="M0 946v66h238v-238q31 105 122 178.5t215 73.5q126 0 207 -55l-47 -68q-63 53 -166 53q-61 0 -115.5 -26.5t-92 -69t-63 -90t-38.5 -96.5q-20 -91 -20 -264v-410h-66v946h-174zM193 1493l59 23q136 -111 233 -250q127 176 224 250l55 -23q-142 -139 -248 -328h-74 q-91 183 -249 328z" />
<glyph unicode="&#x15a;" horiz-adv-x="1019" d="M74 100v90q193 -143 438 -143q77 0 142.5 18t116.5 55t79.5 97.5t28.5 140.5q0 105 -69 169.5t-230 129.5l-101 39q-44 17 -68 27t-60 26t-56 28t-47.5 30.5t-42 36t-31.5 41t-25.5 49.5t-14 58t-5.5 69q0 147 109.5 236t291.5 89q190 0 367 -86v-249h-66v200 q-136 66 -294 66q-151 0 -242.5 -63.5t-91.5 -192.5q0 -38 9 -70.5t22 -57t38 -47t46 -37t58 -31.5t61.5 -26.5t68.5 -25.5l123 -47q78 -30 133 -60.5t101 -73t68.5 -99.5t22.5 -130q0 -82 -28 -148.5t-72.5 -108.5t-105 -70.5t-122 -40t-126.5 -11.5q-234 0 -426 123z M365 1524q185 83 342 233l71 -69q-168 -144 -385 -218z" />
<glyph unicode="&#x15b;" horiz-adv-x="899" d="M102 66v84q93 -54 167.5 -78.5t176.5 -24.5q139 0 208 51.5t69 159.5q0 71 -51.5 113.5t-179.5 91.5l-130 49q-118 43 -172.5 101t-54.5 157q0 118 86 189t240 71q144 0 297 -63v-168h-66v119q-113 45 -235 45q-254 0 -254 -191q0 -62 41 -107.5t141 -82.5l115 -43 q63 -24 101 -40.5t79 -40.5t62 -50t35 -63t14 -83q0 -75 -29 -131t-79 -88t-110 -47.5t-129 -15.5q-178 0 -342 86zM371 1200q144 133 243 332l91 -41q-111 -189 -291 -332z" />
<glyph unicode="&#x15c;" horiz-adv-x="1019" d="M74 100v90q193 -143 438 -143q77 0 142.5 18t116.5 55t79.5 97.5t28.5 140.5q0 105 -69 169.5t-230 129.5l-101 39q-44 17 -68 27t-60 26t-56 28t-47.5 30.5t-42 36t-31.5 41t-25.5 49.5t-14 58t-5.5 69q0 147 109.5 236t291.5 89q190 0 367 -86v-249h-66v200 q-136 66 -294 66q-151 0 -242.5 -63.5t-91.5 -192.5q0 -38 9 -70.5t22 -57t38 -47t46 -37t58 -31.5t61.5 -26.5t68.5 -25.5l123 -47q78 -30 133 -60.5t101 -73t68.5 -99.5t22.5 -130q0 -82 -28 -148.5t-72.5 -108.5t-105 -70.5t-122 -40t-126.5 -11.5q-234 0 -426 123z M264 1473q89 72 145.5 137t100.5 157h76q43 -92 99 -156.5t146 -137.5l-53 -17q-120 58 -227 209q-110 -153 -234 -209z" />
<glyph unicode="&#x15d;" horiz-adv-x="899" d="M102 66v84q93 -54 167.5 -78.5t176.5 -24.5q139 0 208 51.5t69 159.5q0 71 -51.5 113.5t-179.5 91.5l-130 49q-118 43 -172.5 101t-54.5 157q0 118 86 189t240 71q144 0 297 -63v-168h-66v119q-113 45 -235 45q-254 0 -254 -191q0 -62 41 -107.5t141 -82.5l115 -43 q63 -24 101 -40.5t79 -40.5t62 -50t35 -63t14 -83q0 -75 -29 -131t-79 -88t-110 -47.5t-129 -15.5q-178 0 -342 86zM201 1188q145 139 248 328h73q87 -175 250 -328l-59 -23q-138 112 -234 250q-121 -171 -223 -250z" />
<glyph unicode="&#x15e;" horiz-adv-x="1019" d="M74 100v90q193 -143 438 -143q77 0 142.5 18t116.5 55t79.5 97.5t28.5 140.5q0 105 -69 169.5t-230 129.5l-101 39q-44 17 -68 27t-60 26t-56 28t-47.5 30.5t-42 36t-31.5 41t-25.5 49.5t-14 58t-5.5 69q0 147 109.5 236t291.5 89q190 0 367 -86v-249h-66v200 q-136 66 -294 66q-151 0 -242.5 -63.5t-91.5 -192.5q0 -38 9 -70.5t22 -57t38 -47t46 -37t58 -31.5t61.5 -26.5t68.5 -25.5l123 -47q78 -30 133 -60.5t101 -73t68.5 -99.5t22.5 -130q0 -97 -37 -170.5t-99.5 -115.5t-133 -64t-149.5 -26l-25 -97q16 4 45 4q70 0 118 -38 t48 -107q0 -75 -47 -122.5t-150 -47.5q-84 0 -137 35v74q25 -19 65 -30t74 -11q119 0 119 98q0 37 -30.5 59.5t-92.5 22.5q-36 0 -94 -15l41 172q-216 7 -395 123z" />
<glyph unicode="&#x15f;" horiz-adv-x="899" d="M102 66v84q93 -54 167.5 -78.5t176.5 -24.5q139 0 208 51.5t69 159.5q0 71 -51.5 113.5t-179.5 91.5l-130 49q-118 43 -172.5 101t-54.5 157q0 118 86 189t240 71q144 0 297 -63v-168h-66v119q-113 45 -235 45q-254 0 -254 -191q0 -62 41 -107.5t141 -82.5l115 -43 q63 -24 101 -40.5t79 -40.5t62 -50t35 -63t14 -83q0 -69 -24.5 -122t-68 -86t-97 -50.5t-116.5 -21.5l-26 -109q16 4 45 4q70 0 118 -38t48 -107q0 -75 -47 -122.5t-150 -47.5q-84 0 -137 35v73q25 -19 65 -30t74 -11q119 0 119 99q0 37 -30.5 59.5t-92.5 22.5 q-36 0 -94 -15l43 185q-167 6 -318 86z" />
<glyph unicode="&#x160;" horiz-adv-x="1019" d="M74 100v90q193 -143 438 -143q77 0 142.5 18t116.5 55t79.5 97.5t28.5 140.5q0 105 -69 169.5t-230 129.5l-101 39q-44 17 -68 27t-60 26t-56 28t-47.5 30.5t-42 36t-31.5 41t-25.5 49.5t-14 58t-5.5 69q0 147 109.5 236t291.5 89q190 0 367 -86v-249h-66v200 q-136 66 -294 66q-151 0 -242.5 -63.5t-91.5 -192.5q0 -38 9 -70.5t22 -57t38 -47t46 -37t58 -31.5t61.5 -26.5t68.5 -25.5l123 -47q78 -30 133 -60.5t101 -73t68.5 -99.5t22.5 -130q0 -82 -28 -148.5t-72.5 -108.5t-105 -70.5t-122 -40t-126.5 -11.5q-234 0 -426 123z M250 1751l53 16q125 -59 234 -211q103 147 227 211l53 -16q-89 -72 -146 -138t-100 -157h-75q-45 92 -101.5 158t-144.5 137z" />
<glyph unicode="&#x161;" horiz-adv-x="899" d="M102 66v84q93 -54 167.5 -78.5t176.5 -24.5q139 0 208 51.5t69 159.5q0 71 -51.5 113.5t-179.5 91.5l-130 49q-118 43 -172.5 101t-54.5 157q0 118 86 189t240 71q144 0 297 -63v-168h-66v119q-113 45 -235 45q-254 0 -254 -191q0 -62 41 -107.5t141 -82.5l115 -43 q63 -24 101 -40.5t79 -40.5t62 -50t35 -63t14 -83q0 -75 -29 -131t-79 -88t-110 -47.5t-129 -15.5q-178 0 -342 86zM178 1493l60 23q136 -111 233 -250q129 177 223 250l56 -23q-142 -139 -248 -328h-74q-90 181 -250 328z" />
<glyph unicode="&#x162;" horiz-adv-x="1044" />
<glyph unicode="&#x163;" horiz-adv-x="686" />
<glyph unicode="&#x164;" horiz-adv-x="1028" d="M51 1114v248h1016v-250h-66v184h-405v-1296h-72v1296h-407v-182h-66zM272 1751l54 16q124 -59 233 -211q103 147 227 211l54 -16q-89 -72 -146 -138t-100 -157h-76q-45 92 -101.5 158t-144.5 137z" />
<glyph unicode="&#x165;" horiz-adv-x="671" d="M18 946v64h181l4 258l61 26v-284h342v-64h-342v-569q0 -146 12 -201q27 -135 177 -135q110 0 209 51v-69q-36 -20 -93.5 -34t-113.5 -14q-105 0 -171.5 55t-78.5 150q-6 49 -6 168v598h-181zM362 1079q67 186 78 340h82q-11 -83 -40 -174t-62 -160z" />
<glyph unicode="&#x166;" horiz-adv-x="1028" d="M8 1124v238h1014v-238h-70v172h-403v-360h295v-66h-295v-870h-72v870h-278v66h278v360h-399v-172h-70z" />
<glyph unicode="&#x167;" horiz-adv-x="671" d="M-6 946v64h178v174l55 110h11v-284h387l-90 -64h-297v-180h292v-64h-292q0 -56 0.5 -123t1 -113.5t0.5 -51.5q0 -136 10 -193q27 -153 223 -153q120 0 221 57v-76q-85 -47 -200 -47q-146 0 -222 57t-92 154q-8 51 -8 162v327h-149v64h149v180h-178z" />
<glyph unicode="&#x168;" horiz-adv-x="1464" d="M0 1296v66h248v-799q0 -109 10 -168q28 -163 154 -257.5t321 -94.5q182 0 304 86t161 229q19 75 19 207v797h71v-799q0 -145 -20 -223q-46 -162 -187.5 -263.5t-345.5 -101.5q-221 0 -363 111.5t-179 284.5q-17 72 -17 192v733h-176zM453 1442q26 92 66 142t106 50 q56 0 139 -49q80 -49 121 -49q25 0 41.5 27t40.5 92l65 -10q-34 -114 -65.5 -154.5t-79.5 -40.5q-56 0 -144 51q-38 21 -54.5 29t-36 15t-34.5 7q-32 0 -56.5 -30t-45.5 -90z" />
<glyph unicode="&#x169;" horiz-adv-x="1150" d="M0 946v66h225v-572q0 -188 49 -266q37 -64 118.5 -98.5t185.5 -34.5q98 0 177.5 37.5t121.5 101.5q49 78 49 260v570h65v-578q0 -175 -49 -270q-45 -86 -143.5 -136.5t-227.5 -50.5q-133 0 -230.5 46.5t-137.5 136.5q-43 94 -43 274v514h-160zM299 1245q26 92 66 142.5 t106 50.5q51 0 139 -52q80 -49 121 -49q25 0 41.5 27t40.5 92l66 -10q-34 -113 -66 -154t-80 -41q-53 0 -143 52q-38 21 -54.5 29t-36 15t-34.5 7q-60 0 -103 -119z" />
<glyph unicode="&#x16a;" horiz-adv-x="1464" d="M0 1296v66h248v-799q0 -109 10 -168q28 -163 154 -257.5t321 -94.5q182 0 304 86t161 229q19 75 19 207v797h71v-799q0 -145 -20 -223q-46 -162 -187.5 -263.5t-345.5 -101.5q-221 0 -363 111.5t-179 284.5q-17 72 -17 192v733h-176zM492 1454v80h493v-80h-493z" />
<glyph unicode="&#x16b;" horiz-adv-x="1150" d="M0 946v66h225v-572q0 -188 49 -266q37 -64 118.5 -98.5t185.5 -34.5q98 0 177.5 37.5t121.5 101.5q49 78 49 260v570h65v-578q0 -175 -49 -270q-45 -86 -143.5 -136.5t-227.5 -50.5q-133 0 -230.5 46.5t-137.5 136.5q-43 94 -43 274v514h-160zM348 1249v80h494v-80h-494z " />
<glyph unicode="&#x16c;" horiz-adv-x="1464" d="M0 1296v66h248v-799q0 -109 10 -168q28 -163 154 -257.5t321 -94.5q182 0 304 86t161 229q19 75 19 207v797h71v-799q0 -145 -20 -223q-46 -162 -187.5 -263.5t-345.5 -101.5q-221 0 -363 111.5t-179 284.5q-17 72 -17 192v733h-176zM461 1688h71q3 -74 46.5 -112 t152.5 -38q188 0 195 150h71q-6 -232 -270 -232q-139 0 -201 59t-65 173z" />
<glyph unicode="&#x16d;" horiz-adv-x="1150" d="M0 946v66h225v-572q0 -188 49 -266q37 -64 118.5 -98.5t185.5 -34.5q98 0 177.5 37.5t121.5 101.5q49 78 49 260v570h65v-578q0 -175 -49 -270q-45 -86 -143.5 -136.5t-227.5 -50.5q-133 0 -230.5 46.5t-137.5 136.5q-43 94 -43 274v514h-160zM313 1444h72 q2 -38 12 -71.5t30.5 -66t60.5 -52t94 -19.5q51 0 89.5 20t60 52t32 66.5t12.5 70.5h72q-3 -121 -70 -205t-198 -84q-70 0 -122.5 24.5t-82.5 66.5t-45 91.5t-17 106.5z" />
<glyph unicode="&#x16e;" horiz-adv-x="1464" d="M0 1296v66h248v-799q0 -109 10 -168q28 -163 154 -257.5t321 -94.5q182 0 304 86t161 229q19 75 19 207v797h71v-799q0 -145 -20 -223q-46 -162 -187.5 -263.5t-345.5 -101.5q-221 0 -363 111.5t-179 284.5q-17 72 -17 192v733h-176zM553 1634q0 75 52.5 125.5 t127.5 50.5q77 0 129.5 -50.5t52.5 -125.5q0 -76 -52.5 -127t-129.5 -51q-76 0 -128 51t-52 127zM618 1634q0 -50 33 -83t82 -33q50 0 84.5 33.5t34.5 82.5q0 48 -35 82.5t-84 34.5t-82 -34.5t-33 -82.5z" />
<glyph unicode="&#x16f;" horiz-adv-x="1150" d="M0 946v66h225v-572q0 -188 49 -266q37 -64 118.5 -98.5t185.5 -34.5q98 0 177.5 37.5t121.5 101.5q49 78 49 260v570h65v-578q0 -175 -49 -270q-45 -86 -143.5 -136.5t-227.5 -50.5q-133 0 -230.5 46.5t-137.5 136.5q-43 94 -43 274v514h-160zM408 1331q0 76 52.5 127 t129.5 51q76 0 128 -51t52 -127q0 -75 -52.5 -125.5t-127.5 -50.5q-77 0 -129.5 50.5t-52.5 125.5zM473 1331q0 -47 34 -80.5t83 -33.5q48 0 82.5 33.5t34.5 80.5q0 49 -34.5 84t-82.5 35q-49 0 -83 -34.5t-34 -84.5z" />
<glyph unicode="&#x170;" horiz-adv-x="1464" d="M0 1296v66h248v-799q0 -109 10 -168q28 -163 154 -257.5t321 -94.5q182 0 304 86t161 229q19 75 19 207v797h71v-799q0 -145 -20 -223q-46 -162 -187.5 -263.5t-345.5 -101.5q-221 0 -363 111.5t-179 284.5q-17 72 -17 192v733h-176zM467 1509q183 79 344 230l70 -72 q-166 -141 -389 -215zM715 1509q182 79 346 230l69 -72q-163 -139 -389 -215z" />
<glyph unicode="&#x171;" horiz-adv-x="1150" d="M0 946v66h225v-572q0 -188 49 -266q37 -64 118.5 -98.5t185.5 -34.5q98 0 177.5 37.5t121.5 101.5q49 78 49 260v570h65v-578q0 -175 -49 -270q-45 -86 -143.5 -136.5t-227.5 -50.5q-133 0 -230.5 46.5t-137.5 136.5q-43 94 -43 274v514h-160zM354 1202q150 138 248 330 l86 -35q-119 -204 -293 -338zM606 1202q153 138 248 330l88 -35q-116 -199 -293 -338z" />
<glyph unicode="&#x172;" horiz-adv-x="1464" d="M0 1296v66h248v-799q0 -109 10 -168q28 -163 154 -257.5t321 -94.5q182 0 304 86t161 229q19 75 19 207v797h71v-799q0 -145 -20 -223q-39 -138 -150 -233t-272 -121q-111 -89 -151 -141t-40 -115q0 -47 31.5 -76t81.5 -29q80 0 139 33v-66q-62 -32 -135 -32 q-103 0 -151 48t-48 120q0 63 44 127.5t133 119.5h-15q-221 0 -363 111.5t-179 284.5q-17 72 -17 192v733h-176z" />
<glyph unicode="&#x173;" horiz-adv-x="1150" d="M0 946v66h225v-572q0 -188 49 -266q37 -64 118.5 -98.5t185.5 -34.5q98 0 177.5 37.5t121.5 101.5q49 78 49 260v570h65v-578q0 -175 -49 -270q-38 -72 -114.5 -119.5t-178.5 -60.5q-108 -87 -147 -138.5t-39 -113.5q0 -47 31 -76t81 -29q81 0 140 33v-66 q-62 -32 -135 -32q-103 0 -151 48t-48 120q0 63 43.5 127.5t132.5 119.5q-129 3 -222 49t-132 134q-43 94 -43 274v514h-160z" />
<glyph unicode="&#x174;" horiz-adv-x="1902" d="M-20 1296v66h126q83 -238 142.5 -410t101.5 -297t62 -185.5t54 -167t48 -148.5q92 294 412 1208h51q219 -616 284.5 -806t131.5 -402q104 327 409 1208h78l-465 -1362h-45q-319 914 -420 1235q-72 -219 -418 -1235h-45l-442 1296h-65zM666 1473q89 72 144.5 136.5 t100.5 157.5h76q43 -92 99 -156.5t147 -137.5l-53 -17q-121 59 -228 209q-110 -154 -233 -209z" />
<glyph unicode="&#x175;" horiz-adv-x="1540" d="M-41 946v66h133q276 -753 320 -891l338 889h47q321 -839 338 -887q83 249 315 887h80l-377 -1010h-49q-279 711 -332 881q-68 -194 -338 -881h-47l-352 946h-76zM487 1188q145 139 248 328h74q87 -175 250 -328l-60 -23q-136 111 -233 250q-121 -171 -223 -250z" />
<glyph unicode="&#x176;" horiz-adv-x="1165" d="M-33 1296v66h127q423 -635 492 -744q78 123 487 744h84l-539 -813v-549h-71v547l-496 749h-84zM299 1473q89 72 145.5 137t100.5 157h76q43 -92 99 -156.5t146 -137.5l-53 -17q-120 58 -227 209q-110 -153 -234 -209z" />
<glyph unicode="&#x177;" horiz-adv-x="974" d="M-23 946v66h117q352 -811 412 -979q4 11 373 977h84l-478 -1196q-58 -143 -108 -213q-81 -113 -227 -113q-96 0 -150 25v81q66 -38 156 -38q110 0 163 79q49 67 105 207l63 158h-36l-410 946h-64zM207 1188q145 139 248 328h73q87 -175 250 -328l-59 -23 q-138 112 -234 250q-121 -171 -223 -250z" />
<glyph unicode="&#x178;" horiz-adv-x="1210" d="M-41 1296v66h127q423 -635 492 -744q78 123 487 744h84l-539 -813v-549h-71v547l-496 749h-84zM371 1520q0 28 18.5 47.5t48.5 19.5q28 0 47 -20t19 -47q0 -29 -19.5 -47.5t-46.5 -18.5q-29 0 -48 18.5t-19 47.5zM649 1520q0 28 19 47.5t49 19.5q28 0 46.5 -20t18.5 -47 q0 -29 -19 -47.5t-46 -18.5q-29 0 -48.5 18.5t-19.5 47.5z" />
<glyph unicode="&#x179;" horiz-adv-x="1185" d="M41 0v47q912 1149 993 1253q-263 -4 -872 -4v-184h-66v250h1043v-45q-783 -992 -994 -1256q300 5 934 5v184h66v-250h-1104zM410 1524q185 83 342 233l71 -69q-168 -144 -385 -218z" />
<glyph unicode="&#x17a;" horiz-adv-x="991" d="M76 0v41l721 903q-262 -4 -621 -4v-178h-65v250h784v-54l-713 -892q28 0 108 0.5t236 1.5l312 2v180h65v-250h-827zM418 1200q146 135 244 332l90 -41q-111 -189 -291 -332z" />
<glyph unicode="&#x17b;" horiz-adv-x="1185" d="M41 0v47q912 1149 993 1253q-263 -4 -872 -4v-184h-66v250h1043v-45q-783 -992 -994 -1256q300 5 934 5v184h66v-250h-1104zM532 1520q0 27 19 47t45 20t47 -20.5t21 -46.5t-21 -46t-47 -20t-45 20t-19 46z" />
<glyph unicode="&#x17c;" horiz-adv-x="991" d="M76 0v41l721 903q-262 -4 -621 -4v-178h-65v250h784v-54l-713 -892q28 0 108 0.5t236 1.5l312 2v180h65v-250h-827zM442 1313q0 27 18 47t44 20t46.5 -20.5t20.5 -46.5t-20 -45t-47 -19q-26 0 -44 19t-18 45z" />
<glyph unicode="&#x17d;" horiz-adv-x="1140" d="M41 0v47q912 1149 993 1253q-263 -4 -872 -4v-184h-66v250h1043v-45q-783 -992 -994 -1256q300 5 934 5v184h66v-250h-1104zM326 1751l53 16q124 -59 233 -211q102 146 228 211l53 -16q-89 -72 -146 -138t-100 -157h-76q-45 92 -101.5 158.5t-143.5 136.5z" />
<glyph unicode="&#x17e;" horiz-adv-x="991" d="M76 0v41l721 903q-262 -4 -621 -4v-178h-65v250h784v-54l-713 -892q28 0 108 0.5t236 1.5l312 2v180h65v-250h-827zM217 1493l59 23q138 -112 234 -250q129 177 223 250l55 -23q-140 -137 -247 -328h-74q-90 181 -250 328z" />
<glyph unicode="&#x17f;" horiz-adv-x="313" d="M104 0v1145q0 129 15 184q52 189 295 189q109 0 196 -41v-199h-69v152q-70 22 -150 22q-87 0 -138 -33.5t-65 -91.5q-16 -63 -16 -221v-1106h-68z" />
<glyph unicode="&#x192;" horiz-adv-x="438" d="M-281 -389q95 -55 218 -55q184 0 219 135q14 55 14 211v1044h-174v64h174v135q0 134 12 178q25 93 104 144t206 51q108 0 198 -48v-167h-61v122q-80 27 -158 27q-180 0 -219 -137q-14 -53 -14 -209v-96h313v-64h-313v-1036q0 -174 -13 -221q-25 -93 -104 -146t-205 -53 q-109 0 -197 45v76z" />
<glyph unicode="&#x1fa;" horiz-adv-x="1236" d="M18 0l539 1296h-162v66h86q-47 50 -47 123q0 75 52.5 125.5t127.5 50.5q77 0 130 -50.5t53 -125.5q0 -63 -36.5 -110t-94.5 -62l553 -1313h-82l-203 485h-637l-203 -485h-76zM326 551h575q-245 605 -287 717q-1 -2 -24 -61t-95.5 -240t-168.5 -416zM406 1675 q183 82 342 234l71 -70q-166 -143 -385 -217zM500 1485q0 -50 32.5 -83.5t81.5 -33.5q50 0 84.5 34t34.5 83q0 48 -35 82.5t-84 34.5t-81.5 -34.5t-32.5 -82.5z" />
<glyph unicode="&#x1fb;" horiz-adv-x="1019" d="M80 270q0 170 186 248q174 74 504 74v72q0 119 -16 176q-17 58 -74.5 91.5t-142.5 33.5q-161 0 -310 -78v-127h-65v168q116 66 239 90q-59 49 -59 135q0 75 52.5 125.5t127.5 50.5q77 0 130 -50.5t53 -125.5q0 -86 -62 -135q164 -39 188 -197q9 -69 9 -190v-484 q0 -45 6 -63q3 -13 19 -22t38 -9q43 0 98 25v-74q-53 -24 -112 -24q-125 0 -123 170q-20 -27 -49 -53.5t-73 -54.5t-107 -45t-134 -17q-153 0 -238 84.5t-85 205.5zM154 268q0 -102 72 -159.5t167 -57.5q212 0 344 156q33 39 33 139v182q-148 0 -281.5 -19.5t-209.5 -57.5 q-65 -33 -95 -76t-30 -107zM324 1370q183 82 342 234l71 -70q-166 -143 -385 -217zM408 1153q0 -50 32.5 -83.5t81.5 -33.5q50 0 84.5 34t34.5 83q0 48 -35 82.5t-84 34.5t-81.5 -34.5t-32.5 -82.5z" />
<glyph unicode="&#x1fc;" horiz-adv-x="1923" d="M10 0l873 1296h-172v66h1126v-248h-65v180h-664v-557h659v-69h-659v-600h727v-68h-799v406h-667l-271 -406h-88zM408 471h628v825h-82zM1042 1524q185 83 342 233l72 -69q-168 -144 -385 -218z" />
<glyph unicode="&#x1fd;" horiz-adv-x="1796" d="M80 270q0 178 186 256q170 73 504 76v68q0 113 -16 170q-17 58 -74.5 91.5t-142.5 33.5q-161 0 -310 -78v-127h-65v168q176 102 364 102q154 0 226.5 -58.5t87.5 -164.5q61 105 172 166t248 61q224 0 342 -145q114 -141 114 -340v-19h-882q0 -220 108.5 -354.5 t306.5 -134.5q48 0 92.5 6.5t75 12.5t67.5 23.5t53.5 25t49 32t38.5 29.5t38 31v-88q-160 -138 -412 -138q-145 0 -249.5 63t-165.5 175q-18 -38 -52.5 -76t-85 -74.5t-123.5 -59.5t-155 -23q-163 0 -251.5 84.5t-88.5 205.5zM154 266q0 -102 77.5 -158.5t184.5 -56.5 q127 0 226.5 61t164.5 175q-33 86 -37 243q-345 0 -491 -73q-125 -65 -125 -191zM836 1200q144 133 243 332l90 -41q-112 -191 -290 -332zM840 600h796q-6 156 -105.5 261.5t-273.5 105.5q-175 0 -288 -105t-129 -262z" />
<glyph unicode="&#x1fe;" horiz-adv-x="1536" d="M-4 -14l237 239q-147 191 -147 459q0 127 36 238.5t100 195.5t150 145t189 92t213 31q273 0 455 -167l188 190l56 -49l-191 -191q166 -190 166 -487q0 -104 -27.5 -205.5t-85 -192t-138 -159.5t-193.5 -109.5t-244 -40.5q-301 0 -481 193l-234 -234zM162 684 q0 -242 125 -408l887 889q-169 152 -408 152q-173 0 -310 -77.5t-215.5 -222.5t-78.5 -333zM332 219q80 -84 191.5 -129t242.5 -45q172 0 310.5 80.5t217 227t78.5 331.5q0 256 -141 434zM555 1524q185 83 342 233l72 -69q-168 -144 -385 -218z" />
<glyph unicode="&#x1ff;" horiz-adv-x="1189" d="M18 -4l175 172q-109 140 -109 336q0 144 64.5 264t182.5 191t265 71q203 0 338 -119l149 150l56 -53l-150 -150q117 -142 117 -348q0 -144 -65.5 -265.5t-183 -193t-261.5 -71.5q-210 0 -352 133l-172 -172zM150 504q0 -156 90 -287l645 645q-122 103 -289 103 q-90 0 -166 -28t-126.5 -74.5t-86 -107t-51.5 -124t-16 -127.5zM293 160q125 -115 303 -115q105 0 191.5 42.5t139.5 110.5t82 148.5t29 161.5q0 174 -98 301zM528 1200q146 135 244 332l90 -41q-111 -189 -291 -332z" />
<glyph unicode="&#x218;" horiz-adv-x="1034" />
<glyph unicode="&#x219;" horiz-adv-x="907" />
<glyph unicode="&#x21a;" horiz-adv-x="1120" d="M51 1114v248h1016v-250h-66v184h-405v-1296h-72v1296h-407v-182h-66zM389 -442q53 79 90 173t43 171l96 -4q-45 -202 -172 -367z" />
<glyph unicode="&#x21b;" horiz-adv-x="671" d="M18 946v64h181l4 258l61 26v-284h342v-64h-342v-569q0 -146 12 -201q27 -135 177 -135q110 0 209 51v-69q-36 -20 -93.5 -34t-113.5 -14q-105 0 -171.5 55t-78.5 150q-6 49 -6 168v598h-181zM256 -442q53 79 90 173t43 171l96 -4q-45 -202 -172 -367z" />
<glyph unicode="&#x2c6;" horiz-adv-x="720" d="M76 1188q145 139 248 328h73q87 -175 250 -328l-59 -23q-138 112 -234 250q-121 -171 -223 -250z" />
<glyph unicode="&#x2c7;" horiz-adv-x="720" d="M76 1493l59 23q138 -112 234 -250q129 177 223 250l55 -23q-142 -139 -248 -328h-73q-90 181 -250 328z" />
<glyph unicode="&#x2d8;" horiz-adv-x="669" d="M66 1444h71q2 -38 12 -71.5t30.5 -66t60.5 -52t94 -19.5q51 0 89.5 20t60 52t32 66.5t12.5 70.5h72q-3 -121 -70 -205t-198 -84q-70 0 -122 24.5t-82 66.5t-45 91.5t-17 106.5z" />
<glyph unicode="&#x2d9;" horiz-adv-x="733" d="M303 1313q0 27 18 47t44 20t46.5 -20.5t20.5 -46.5t-20 -45t-47 -19q-26 0 -44 19t-18 45z" />
<glyph unicode="&#x2da;" horiz-adv-x="780" d="M209 1331q0 76 52.5 127t129.5 51q76 0 128 -51t52 -127q0 -75 -52.5 -125.5t-127.5 -50.5q-77 0 -129.5 50.5t-52.5 125.5zM274 1331q0 -47 34 -80.5t83 -33.5q48 0 82.5 33.5t34.5 80.5q0 49 -34.5 84t-82.5 35q-49 0 -83 -34.5t-34 -84.5z" />
<glyph unicode="&#x2db;" horiz-adv-x="579" d="M123 -272q0 74 62 150.5t184 133.5h63q-136 -106 -181.5 -161t-45.5 -121q0 -47 31 -76t81 -29q81 0 140 33v-66q-62 -32 -135 -32q-103 0 -151 48t-48 120z" />
<glyph unicode="&#x2dc;" horiz-adv-x="862" d="M143 1245q26 92 66 142.5t106 50.5q52 0 140 -52q80 -49 120 -49q25 0 41.5 27t40.5 92l66 -10q-34 -114 -66 -154.5t-79 -40.5q-54 0 -144 52q-38 21 -54.5 29t-36 15t-34.5 7q-59 0 -102 -119z" />
<glyph unicode="&#x2dd;" horiz-adv-x="669" d="M41 1202q150 138 248 330l86 -35q-119 -204 -293 -338zM293 1202q153 138 248 330l88 -35q-116 -199 -293 -338z" />
<glyph unicode="&#x394;" horiz-adv-x="1275" d="M10 0l570 1384h125l561 -1384h-1256zM123 72h1032l-516 1259z" />
<glyph unicode="&#x3a9;" horiz-adv-x="1714" d="M127 715q0 299 163.5 481t426.5 182q255 0 412 -178.5t157 -468.5q0 -476 -438 -661h391v-70h-444v121q98 39 171.5 89.5t131.5 121t88.5 166.5t30.5 215q0 175 -57.5 308.5t-173.5 210.5t-275 77q-240 0 -375 -164.5t-135 -435.5q0 -430 424 -588v-121h-445v70h391 q-217 77 -330.5 239t-113.5 406z" />
<glyph unicode="&#x3bc;" horiz-adv-x="1181" d="M0 946v66h240v-588q0 -92 18 -150q34 -103 126.5 -163t205.5 -60q112 0 201.5 61.5t130.5 166.5q20 54 20 145v586h66v-586q0 -91 -19 -152q-41 -133 -151 -214t-248 -81q-74 0 -140 18t-127.5 63.5t-97.5 113.5l17 -438h-70l2 1212h-174z" />
<glyph unicode="&#x3c0;" horiz-adv-x="1038" d="M82 950v60h874v-60h-143v-577q0 -230 49 -373h-63q-43 128 -43 369v581h-477v-950h-58v950h-139z" />
<glyph unicode="&#x1e80;" horiz-adv-x="1902" d="M-20 1296v66h126q83 -238 142.5 -410t101.5 -297t62 -185.5t54 -167t48 -148.5q92 294 412 1208h51q219 -616 284.5 -806t131.5 -402q104 327 409 1208h78l-465 -1362h-45q-319 914 -420 1235q-72 -219 -418 -1235h-45l-442 1296h-65zM739 1671l72 70q165 -157 342 -234 l-27 -55q-231 82 -387 219z" />
<glyph unicode="&#x1e81;" horiz-adv-x="1540" d="M-41 946v66h133q276 -753 320 -891l338 889h47q321 -839 338 -887q83 249 315 887h80l-377 -1010h-49q-279 711 -332 881q-68 -194 -338 -881h-47l-352 946h-76zM606 1491l88 41q102 -199 246 -332l-43 -41q-185 146 -291 332z" />
<glyph unicode="&#x1e82;" horiz-adv-x="1902" d="M-20 1296v66h126q83 -238 142.5 -410t101.5 -297t62 -185.5t54 -167t48 -148.5q92 294 412 1208h51q219 -616 284.5 -806t131.5 -402q104 327 409 1208h78l-465 -1362h-45q-319 914 -420 1235q-72 -219 -418 -1235h-45l-442 1296h-65zM745 1524q185 83 342 233l72 -69 q-168 -144 -385 -218z" />
<glyph unicode="&#x1e83;" horiz-adv-x="1540" d="M-41 946v66h133q276 -753 320 -891l338 889h47q321 -839 338 -887q83 249 315 887h80l-377 -1010h-49q-279 711 -332 881q-68 -194 -338 -881h-47l-352 946h-76zM600 1200q146 135 244 332l90 -41q-111 -189 -291 -332z" />
<glyph unicode="&#x1e84;" horiz-adv-x="1902" d="M-20 1296v66h126q83 -238 142.5 -410t101.5 -297t62 -185.5t54 -167t48 -148.5q92 294 412 1208h51q219 -616 284.5 -806t131.5 -402q104 327 409 1208h78l-465 -1362h-45q-319 914 -420 1235q-72 -219 -418 -1235h-45l-442 1296h-65zM743 1520q0 28 19 47.5t49 19.5 q28 0 47 -20t19 -47q0 -29 -19.5 -47.5t-46.5 -18.5q-29 0 -48.5 18.5t-19.5 47.5zM1022 1520q0 28 19 47.5t49 19.5q28 0 46.5 -20t18.5 -47q0 -29 -19 -47.5t-46 -18.5q-29 0 -48.5 18.5t-19.5 47.5z" />
<glyph unicode="&#x1e85;" horiz-adv-x="1540" d="M-41 946v66h133q276 -753 320 -891l338 889h47q321 -839 338 -887q83 249 315 887h80l-377 -1010h-49q-279 711 -332 881q-68 -194 -338 -881h-47l-352 946h-76zM565 1286q0 28 19 48t49 20q28 0 46.5 -20.5t18.5 -47.5q0 -29 -19 -47t-46 -18q-30 0 -49 18t-19 47z M840 1286q0 29 18.5 48.5t48.5 19.5q28 0 47 -20.5t19 -47.5q0 -28 -19.5 -46.5t-46.5 -18.5q-29 0 -48 18t-19 47z" />
<glyph unicode="&#x1ef2;" horiz-adv-x="1165" d="M-33 1296v66h127q423 -635 492 -744q78 123 487 744h84l-539 -813v-549h-71v547l-496 749h-84zM375 1671l71 70q165 -157 342 -234l-26 -55q-231 82 -387 219z" />
<glyph unicode="&#x1ef3;" horiz-adv-x="974" d="M-23 946v66h117q352 -811 412 -979q4 11 373 977h84l-478 -1196q-58 -143 -108 -213q-81 -113 -227 -113q-96 0 -150 25v81q66 -38 156 -38q110 0 163 79q49 67 105 207l63 158h-36l-410 946h-64zM322 1491l88 41q103 -201 245 -332l-43 -41q-183 145 -290 332z" />
<glyph unicode="&#x2000;" horiz-adv-x="954" />
<glyph unicode="&#x2001;" horiz-adv-x="1909" />
<glyph unicode="&#x2002;" horiz-adv-x="954" />
<glyph unicode="&#x2003;" horiz-adv-x="1909" />
<glyph unicode="&#x2004;" horiz-adv-x="636" />
<glyph unicode="&#x2005;" horiz-adv-x="477" />
<glyph unicode="&#x2006;" horiz-adv-x="318" />
<glyph unicode="&#x2007;" horiz-adv-x="318" />
<glyph unicode="&#x2008;" horiz-adv-x="238" />
<glyph unicode="&#x2009;" horiz-adv-x="381" />
<glyph unicode="&#x200a;" horiz-adv-x="106" />
<glyph unicode="&#x2010;" horiz-adv-x="622" d="M92 455v75h440v-75h-440z" />
<glyph unicode="&#x2011;" horiz-adv-x="622" d="M92 455v75h440v-75h-440z" />
<glyph unicode="&#x2012;" horiz-adv-x="622" d="M92 455v75h440v-75h-440z" />
<glyph unicode="&#x2013;" horiz-adv-x="907" d="M94 461v65h717v-65h-717z" />
<glyph unicode="&#x2014;" horiz-adv-x="1255" d="M94 461v65h1065v-65h-1065z" />
<glyph unicode="&#x2018;" horiz-adv-x="344" d="M74 991q8 137 60 258.5t122 204.5l53 -22q-61 -83 -103 -208.5t-42 -238.5z" />
<glyph unicode="&#x2019;" horiz-adv-x="344" d="M35 999q61 83 103 208.5t42 238.5l90 -6q-7 -138 -59.5 -259.5t-122.5 -203.5z" />
<glyph unicode="&#x201a;" horiz-adv-x="346" d="M35 -279q61 83 103 208.5t42 238.5l90 -6q-7 -138 -59.5 -259.5t-122.5 -203.5z" />
<glyph unicode="&#x201c;" horiz-adv-x="606" d="M74 991q8 137 60 258.5t122 204.5l53 -22q-61 -83 -103 -208.5t-42 -238.5zM336 991q7 136 59 257.5t123 205.5l53 -22q-61 -83 -103 -208.5t-42 -238.5z" />
<glyph unicode="&#x201d;" horiz-adv-x="606" d="M35 999q61 83 103 208.5t42 238.5l90 -6q-7 -138 -59.5 -259.5t-122.5 -203.5zM297 999q61 83 103 208.5t42 238.5l90 -6q-8 -138 -60 -260t-122 -203z" />
<glyph unicode="&#x201e;" horiz-adv-x="606" d="M35 -279q61 83 103 208.5t42 238.5l90 -6q-7 -138 -59.5 -259.5t-122.5 -203.5zM297 -279q61 83 103 208.5t42 238.5l90 -6q-8 -138 -60 -260t-122 -203z" />
<glyph unicode="&#x2020;" horiz-adv-x="931" d="M82 1032v64h356v327h64v-327h348v-64h-348v-1005h-64v1005h-356z" />
<glyph unicode="&#x2021;" horiz-adv-x="931" d="M82 307v64h356v661h-356v64h356v327h64v-327h348v-64h-348v-661h348v-64h-348v-268h-64v268h-356z" />
<glyph unicode="&#x2022;" horiz-adv-x="862" d="M260 635q0 70 50.5 121t121.5 51q69 0 120.5 -51.5t51.5 -120.5q0 -71 -51 -120.5t-121 -49.5q-72 0 -122 49t-50 121z" />
<glyph unicode="&#x2024;" horiz-adv-x="387" d="M94 55q0 29 21 50.5t49 21.5q29 0 50.5 -21.5t21.5 -50.5t-21 -49t-51 -20q-28 0 -49 20t-21 49z" />
<glyph unicode="&#x2025;" horiz-adv-x="774" d="M94 55q0 29 21 50.5t49 21.5q29 0 50.5 -21.5t21.5 -50.5t-21 -49t-51 -20q-28 0 -49 20t-21 49zM481 55q0 29 21.5 50.5t50.5 21.5q28 0 49 -21.5t21 -50.5t-21 -49t-49 -20q-30 0 -51 20t-21 49z" />
<glyph unicode="&#x2026;" horiz-adv-x="1277" d="M160 49q0 27 19 46.5t46 19.5q26 0 46 -20t20 -46t-20 -45.5t-46 -19.5q-27 0 -46 19t-19 46zM573 49q0 26 20 46t46 20t46 -20t20 -46t-20 -45.5t-46 -19.5t-46 19.5t-20 45.5zM987 49q0 26 20 46t46 20q27 0 47 -19.5t20 -46.5q0 -26 -19.5 -45.5t-47.5 -19.5 q-26 0 -46 19.5t-20 45.5z" />
<glyph unicode="&#x202f;" horiz-adv-x="381" />
<glyph unicode="&#x2030;" horiz-adv-x="2236" d="M51 831q0 171 84 283.5t215 112.5q143 0 222 -110t79 -286q0 -173 -80.5 -283t-222.5 -110t-219.5 109.5t-77.5 283.5zM104 831q0 -60 13.5 -118t41.5 -109.5t78 -83t115 -31.5t114.5 31.5t77 83t41 109t13.5 118.5q0 63 -13 121t-40.5 110t-77 83t-115.5 31 q-64 0 -113.5 -31.5t-78 -83.5t-42.5 -110.5t-14 -119.5zM244 -61l991 1345h61l-989 -1345h-63zM881 381q0 171 84 283t215 112q144 0 222.5 -109.5t78.5 -285.5q0 -173 -80.5 -283t-222.5 -110t-219.5 109.5t-77.5 283.5zM934 381q0 -60 13.5 -118t41.5 -109.5t78 -83 t115 -31.5t114.5 31.5t77 83t40.5 109t13 118.5q0 63 -13 121t-40 109.5t-76.5 82.5t-115.5 31q-64 0 -113.5 -31.5t-78 -83t-42.5 -110t-14 -119.5zM1585 381q0 171 84 283t215 112q144 0 222.5 -109.5t78.5 -285.5q0 -173 -80.5 -283t-222.5 -110t-219.5 109.5 t-77.5 283.5zM1638 381q0 -60 13.5 -118t41.5 -109.5t78 -83t115 -31.5t114.5 31.5t77 83t41 109t13.5 118.5q0 63 -13 121t-40.5 109.5t-77 82.5t-115.5 31q-64 0 -113.5 -31.5t-78 -83t-42.5 -110t-14 -119.5z" />
<glyph unicode="&#x2039;" horiz-adv-x="544" d="M45 492l305 307h96l-272 -307l264 -275h-102z" />
<glyph unicode="&#x203a;" horiz-adv-x="544" d="M94 799h99l305 -307l-293 -275h-101l263 275z" />
<glyph unicode="&#x2044;" horiz-adv-x="225" d="M-414 -61l992 1345h61l-989 -1345h-64z" />
<glyph unicode="&#x205f;" horiz-adv-x="477" />
<glyph unicode="&#x2070;" horiz-adv-x="702" d="M51 1180q0 171 84 283t215 112q144 0 222.5 -109.5t78.5 -285.5q0 -173 -80.5 -283.5t-222.5 -110.5t-219.5 110t-77.5 284zM104 1180q0 -60 13.5 -118t41.5 -109.5t78 -83t115 -31.5t114.5 31.5t77 83t41 109t13.5 118.5q0 63 -13 121t-40.5 109.5t-77 82.5t-115.5 31 q-64 0 -113.5 -31.5t-78 -83t-42.5 -110t-14 -119.5z" />
<glyph unicode="&#x2074;" horiz-adv-x="694" d="M70 997l397 570h63q-5 -9 -98.5 -143t-184 -264t-87.5 -126h309v264l53 70v-334h92v-59h-92v-176h-51v176h-393z" />
<glyph unicode="&#x2075;" horiz-adv-x="700" d="M113 1174l10 393h424l-6 -58h-365q-1 -17 -2 -44.5t-3 -85.5t-3.5 -96.5t-1.5 -37.5q41 23 96.5 36t93.5 13q123 0 191.5 -66t68.5 -173q0 -131 -83.5 -200t-208.5 -69q-99 0 -209 43v158h49v-117q81 -30 170 -30q25 0 51.5 4t60.5 17.5t59.5 35.5t43.5 62.5t18 93.5 q0 32 -9.5 61.5t-30.5 57.5t-62.5 44.5t-99.5 16.5q-67 0 -129.5 -22.5t-100.5 -47.5z" />
<glyph unicode="&#x2076;" horiz-adv-x="698" d="M68 1155q0 113 36.5 206t111 151.5t175.5 58.5q87 0 187 -41v-160h-50v121q-77 25 -137 25t-107.5 -21.5t-76.5 -54.5t-49 -79t-29 -87.5t-12 -87.5q0 -7 -0.5 -21.5t-0.5 -27t1 -25.5q29 76 94.5 119t153.5 43q129 0 196 -70q70 -67 70 -172q0 -113 -80 -179.5 t-199 -66.5q-77 0 -135.5 35t-91.5 92q-57 98 -57 242zM143 1032q0 -84 66.5 -138t146.5 -54q110 0 168 54.5t58 137.5q0 80 -54 132.5t-157 52.5t-165.5 -55.5t-62.5 -129.5z" />
<glyph unicode="&#x2077;" horiz-adv-x="704" d="M109 1368v199h479l8 -11q-121 -140 -194.5 -359.5t-75.5 -397.5h-52q0 167 64 366.5t162 343.5q-252 2 -342 2v-143h-49z" />
<glyph unicode="&#x2078;" horiz-adv-x="698" d="M86 1010q0 61 41 114t106 76q-56 23 -88 69t-32 99q0 89 64.5 148t172.5 59q106 0 172 -58t66 -143q0 -56 -30.5 -102t-86.5 -72q65 -23 104 -74t39 -112q0 -97 -73 -162.5t-189 -65.5t-191 65.5t-75 158.5zM141 1006q0 -74 57.5 -121t153.5 -47t152.5 47t56.5 127 q0 70 -61 113.5t-150 43.5q-88 0 -148.5 -46t-60.5 -117zM164 1374q0 -63 51 -104t137 -41q87 0 137 42t50 109q0 62 -53.5 105t-135.5 43t-134 -44t-52 -110z" />
<glyph unicode="&#x2079;" horiz-adv-x="698" d="M68 1323q0 114 80 183t194 69q149 0 231 -129q58 -96 58 -246q0 -115 -38.5 -208.5t-112.5 -149.5t-171 -56q-59 0 -107.5 12t-62 19.5t-51.5 30.5v158h49v-125q72 -39 172 -39q57 0 103 19.5t74 52t44.5 62t26.5 62.5q35 119 21 207q-11 -76 -85.5 -121t-156.5 -45 q-109 0 -188.5 66t-79.5 178zM119 1325q0 -76 51 -131t160 -55q104 0 164.5 58.5t60.5 127.5q0 78 -55.5 137.5t-161.5 59.5q-105 0 -162 -59t-57 -138z" />
<glyph unicode="&#x207d;" horiz-adv-x="401" d="M43 1065q0 160 47 314.5t135 277.5h31q-166 -302 -166 -596q0 -281 164 -578h-31q-86 126 -133 276.5t-47 305.5z" />
<glyph unicode="&#x207e;" horiz-adv-x="401" d="M143 1657h35q87 -123 133.5 -277.5t46.5 -314.5q0 -155 -47 -305.5t-133 -276.5h-33q166 307 166 578q0 291 -168 596z" />
<glyph unicode="&#x2080;" horiz-adv-x="702" d="M51 381q0 171 84 283t215 112q144 0 222.5 -109.5t78.5 -285.5q0 -173 -80.5 -283t-222.5 -110t-219.5 109.5t-77.5 283.5zM104 381q0 -60 13.5 -118t41.5 -109.5t78 -83t115 -31.5t114.5 31.5t77 83t41 109t13.5 118.5q0 63 -13 121t-40.5 109.5t-77 82.5t-115.5 31 q-64 0 -113.5 -31.5t-78 -83t-42.5 -110t-14 -119.5z" />
<glyph unicode="&#x2081;" horiz-adv-x="712" d="M154 0v49h176v602q-10 -18 -51.5 -46t-78.5 -47l-36 -19v55q15 9 39 24.5t81 62.5t93 91h6v-723h174v-49h-403z" />
<glyph unicode="&#x2082;" horiz-adv-x="698" d="M90 0v31q21 20 56 51.5t108.5 99t121.5 111t46 41.5q4 3 10.5 10t19.5 21.5t23 25.5q82 86 82 172q0 46 -20 80.5t-51.5 51.5t-62.5 24.5t-61 7.5q-77 0 -161 -37v-119h-49v144q29 21 86.5 41t117.5 20q100 0 174 -54t74 -163q0 -101 -72 -184q-31 -38 -73 -80l-271 -246 h410v-49h-508z" />
<glyph unicode="&#x2083;" horiz-adv-x="706" d="M129 35v51q125 -47 227 -47q82 0 135.5 43t53.5 131q0 59 -34 99.5t-82.5 55.5t-104.5 11v55q90 -3 146 40.5t56 107.5q0 73 -53.5 108t-128.5 35q-65 0 -156 -31v-123h-49v158q114 47 205 47q39 0 77 -10t74 -31t58 -61.5t22 -95.5q0 -65 -44.5 -111t-106.5 -57l6 -4 q73 -12 118.5 -63t45.5 -128q0 -50 -17 -90.5t-42.5 -65t-58 -41.5t-61.5 -23.5t-55 -6.5q-116 0 -231 47z" />
<glyph unicode="&#x2084;" horiz-adv-x="694" d="M70 199l397 569h63q-5 -9 -98.5 -143t-184 -263.5t-87.5 -125.5h309v264l53 69v-333h92v-60h-92v-176h-51v176h-393z" />
<glyph unicode="&#x2085;" horiz-adv-x="700" d="M113 375l10 393h424l-6 -57h-365q-1 -17 -2 -44.5t-3 -86t-3.5 -97t-1.5 -37.5q41 23 96.5 36.5t93.5 13.5q123 0 191.5 -66.5t68.5 -173.5q0 -131 -83.5 -199.5t-208.5 -68.5q-99 0 -209 43v157h49v-116q83 -31 170 -31q25 0 51.5 4t60.5 17.5t59.5 35.5t43.5 62.5 t18 93.5q0 32 -9.5 61.5t-30.5 57.5t-62.5 44.5t-99.5 16.5q-67 0 -130 -22.5t-100 -46.5z" />
<glyph unicode="&#x2086;" horiz-adv-x="698" d="M68 356q0 113 36.5 206t111 151.5t175.5 58.5q87 0 187 -41v-160h-50v121q-77 25 -137 25t-107.5 -21.5t-76.5 -54.5t-49 -79t-29 -87.5t-12 -87.5q0 -7 -0.5 -21.5t-0.5 -27t1 -25.5q29 76 94.5 119t153.5 43q130 0 196 -69q70 -67 70 -173q0 -113 -80 -179t-199 -66 q-77 0 -135.5 35t-91.5 92q-57 98 -57 241zM143 233q0 -84 66.5 -138t146.5 -54q110 0 168 54.5t58 137.5q0 80 -54 132.5t-157 52.5t-165.5 -55.5t-62.5 -129.5z" />
<glyph unicode="&#x2087;" horiz-adv-x="704" d="M109 569v199h479l8 -10q-121 -140 -194.5 -360t-75.5 -398h-52q0 167 64 367t162 344q-252 2 -342 2v-144h-49z" />
<glyph unicode="&#x2088;" horiz-adv-x="698" d="M86 211q0 61 41 114t106 76q-56 23 -88 69t-32 99q0 89 64.5 148t172.5 59q106 0 172 -58t66 -143q0 -56 -30.5 -102t-86.5 -72q65 -23 104 -74t39 -112q0 -97 -72.5 -162t-189.5 -65q-116 0 -191 65t-75 158zM141 207q0 -74 57.5 -121t153.5 -47t152.5 47t56.5 127 q0 70 -61 114t-150 44q-88 0 -148.5 -46.5t-60.5 -117.5zM164 575q0 -63 51 -104t137 -41q87 0 137 42t50 110q0 62 -53.5 104.5t-135.5 42.5t-134 -44t-52 -110z" />
<glyph unicode="&#x2089;" horiz-adv-x="698" d="M68 524q0 114 80 183t194 69q149 0 231 -129q58 -96 58 -246q0 -176 -88 -294.5t-234 -118.5q-60 0 -107.5 11.5t-62.5 19.5t-51 30v158h49v-125q72 -39 172 -39q57 0 103 19.5t74 52t44.5 62.5t26.5 63q35 118 21 206q-11 -76 -85.5 -120.5t-156.5 -44.5 q-109 0 -188.5 65.5t-79.5 177.5zM119 526q0 -76 51 -131t160 -55q104 0 164.5 58.5t60.5 127.5q0 78 -55.5 137.5t-161.5 59.5q-105 0 -162 -59t-57 -138z" />
<glyph unicode="&#x208d;" horiz-adv-x="401" d="M43 266q0 160 47 314.5t135 277.5h31q-166 -302 -166 -596q0 -280 164 -577h-31q-86 126 -133 276t-47 305z" />
<glyph unicode="&#x208e;" horiz-adv-x="401" d="M143 858h35q87 -123 133.5 -277.5t46.5 -314.5q0 -155 -47 -305t-133 -276h-33q166 307 166 577q0 291 -168 596z" />
<glyph unicode="&#x20a1;" horiz-adv-x="980" d="M84 496q0 201 113.5 350t304.5 178l39 195h86l-39 -189q19 0 51 -2t47 -2l41 193h86l-43 -211q54 -14 109 -39v-74q-52 28 -123 51l-183 -901q169 6 328 117v-78q-141 -101 -342 -104l-35 -175h-86l35 179q-54 6 -94 20l-41 -199h-86l47 234q-105 64 -160 181t-55 276z M150 502q0 -124 41.5 -224.5t123.5 -160.5l170 839q-85 -18 -151.5 -66t-105 -112.5t-58.5 -135t-20 -140.5zM393 76q39 -15 94 -25l185 907q-47 7 -97 7z" />
<glyph unicode="&#x20ac;" horiz-adv-x="1710" d="M70 573l80 80h831l-80 -80h-364q33 -235 196 -381.5t416 -146.5q254 0 493 137v-86q-222 -121 -503 -121q-155 0 -279.5 49.5t-204.5 134.5t-127.5 189.5t-62.5 224.5h-395zM227 733l80 80h160q28 174 128 305.5t244.5 199.5t311.5 68q87 0 165.5 -10.5t143 -31t91 -30.5 t67.5 -28v-250h-62v199q-181 84 -407 84q-230 0 -398.5 -137.5t-209.5 -368.5h604l-80 -80h-838z" />
<glyph unicode="&#x2122;" horiz-adv-x="1783" d="M190 1202v162h668l346 -471l342 471h49v-887h-45v809q-5 -5 -350 -471q-160 217 -296 403l-52 70v-811h-45v844h-262v-844h-47v844h-265v-119h-43z" />
<glyph unicode="&#x2126;" horiz-adv-x="1714" d="M127 715q0 299 163.5 481t426.5 182q255 0 412 -178.5t157 -468.5q0 -476 -438 -661h391v-70h-444v121q98 39 171.5 89.5t131.5 121t88.5 166.5t30.5 215q0 175 -57.5 308.5t-173.5 210.5t-275 77q-240 0 -375 -164.5t-135 -435.5q0 -430 424 -588v-121h-445v70h391 q-217 77 -330.5 239t-113.5 406z" />
<glyph unicode="&#x212e;" horiz-adv-x="1593" d="M78 623q0 130 57 248t153.5 203t228.5 135.5t276 50.5q146 0 278 -50.5t227.5 -135.5t152 -203t56.5 -248v-19h-1159q-6 0 -6 -10v-348q0 -21 18 -39q83 -89 195.5 -139t239.5 -50q137 0 255 55.5t203 155.5h105q-99 -117 -247 -183t-318 -66q-193 0 -357.5 86t-261 234 t-96.5 323zM342 649q0 -12 6 -12h889q10 0 10 12v350q0 21 -22 43q-82 84 -194 132.5t-236 48.5q-126 0 -237.5 -50t-197.5 -139q-18 -18 -18 -43v-342z" />
<glyph unicode="&#x2153;" horiz-adv-x="1609" d="M154 451v49h176v602q-10 -18 -51.5 -46.5t-78.5 -47.5l-36 -19v55q5 3 14.5 9t37 25t52.5 39t56 49t53 57h6v-723h174v-49h-403zM264 -61l991 1345h62l-989 -1345h-64zM1053 35v51q125 -47 227 -47q82 0 135 43t53 131q0 59 -34 99.5t-82.5 55.5t-104.5 11v55 q90 -3 146.5 40.5t56.5 107.5q0 73 -53.5 108t-128.5 35q-65 0 -156 -31v-123h-49v158q114 47 205 47q39 0 77 -10t74 -31t58 -61.5t22 -95.5q0 -65 -44.5 -111t-106.5 -57l6 -4q73 -12 118.5 -63t45.5 -128q0 -50 -17 -90.5t-42.5 -65t-58 -41.5t-61.5 -23.5t-55 -6.5 q-116 0 -231 47z" />
<glyph unicode="&#x2154;" horiz-adv-x="1587" d="M111 451v30q21 20 56 51.5t108.5 99t121 111t45.5 41.5q4 3 11 10.5t20 22t23 25.5q82 86 82 172q0 46 -20 80.5t-51.5 51.5t-62.5 24.5t-61 7.5q-78 0 -162 -37v-119h-49v143q29 22 87.5 42t117.5 20q100 0 174 -54t74 -163q0 -102 -72 -185q-27 -33 -74 -80l-270 -245 h409v-49h-507zM309 -61l991 1345h62l-989 -1345h-64zM1032 35v51q125 -47 228 -47q82 0 135 43t53 131q0 59 -34 99.5t-82.5 55.5t-104.5 11v55q90 -3 146.5 40.5t56.5 107.5q0 73 -54 108t-129 35q-64 0 -155 -31v-123h-50v158q114 47 205 47q39 0 77 -10t74.5 -31 t58.5 -61.5t22 -95.5q0 -65 -45 -111t-107 -57l6 -4q73 -12 118.5 -63t45.5 -128q0 -50 -16.5 -90.5t-42 -65t-58 -41.5t-61.5 -23.5t-55 -6.5q-117 0 -232 47z" />
<glyph unicode="&#x2155;" horiz-adv-x="1601" d="M154 451v49h176v602q-10 -18 -51.5 -46.5t-78.5 -47.5l-36 -19v55q5 3 14.5 9t37 25t52.5 39t56 49t53 57h6v-723h174v-49h-403zM262 -61l991 1345h62l-989 -1345h-64zM1036 375l11 393h423l-6 -57h-364q-1 -17 -2 -44.5t-3 -86t-3.5 -97t-1.5 -37.5q41 23 96.5 36.5 t93.5 13.5q123 0 191.5 -66.5t68.5 -173.5q0 -131 -83.5 -199.5t-209.5 -68.5q-99 0 -209 43v157h49v-116q83 -31 170 -31q25 0 51.5 4t60.5 17.5t60 35.5t44 62.5t18 93.5q0 32 -9.5 61.5t-31 57.5t-63 44.5t-99.5 16.5q-67 0 -129.5 -22.5t-99.5 -46.5z" />
<glyph unicode="&#x2156;" horiz-adv-x="1587" d="M90 451v30q21 20 56 51.5t108.5 99t121.5 111t46 41.5q3 3 10 10.5t19.5 22t23.5 25.5q82 86 82 172q0 46 -20 80.5t-51.5 51.5t-62.5 24.5t-61 7.5q-77 0 -161 -37v-119h-49v143q29 22 87 42t117 20q100 0 174 -54t74 -163q0 -102 -72 -185q-31 -38 -73 -80l-271 -245 h410v-49h-508zM250 -61l991 1345h62l-990 -1345h-63zM1022 375l10 393h424l-6 -57h-365q-1 -17 -2 -44.5t-3 -86t-3.5 -97t-1.5 -37.5q41 23 97 36.5t94 13.5q123 0 191.5 -66.5t68.5 -173.5q0 -131 -83.5 -199.5t-209.5 -68.5q-99 0 -209 43v157h49v-116q83 -31 170 -31 q25 0 51.5 4t60.5 17.5t60 35.5t44 62.5t18 93.5q0 32 -9.5 61.5t-31 57.5t-63 44.5t-99.5 16.5q-67 0 -130 -22.5t-100 -46.5z" />
<glyph unicode="&#x2157;" horiz-adv-x="1599" d="M129 485v52q127 -48 227 -48q82 0 135.5 43.5t53.5 131.5q0 59 -34 99t-82.5 55t-104.5 11v56q90 -3 146 40t56 107q0 74 -53.5 109t-128.5 35q-65 0 -156 -31v-123h-49v158q114 47 205 47q39 0 77 -10t74 -31.5t58 -62t22 -95.5q0 -65 -44.5 -111t-106.5 -57l6 -4 q73 -12 118.5 -62.5t45.5 -127.5q0 -61 -24.5 -108t-63 -71.5t-76 -36.5t-70.5 -12q-116 0 -231 47zM260 -61l991 1345h62l-989 -1345h-64zM1034 375l10 393h424l-6 -57h-364q-1 -17 -2 -44.5t-3.5 -86t-4 -97t-1.5 -37.5q41 23 97 36.5t94 13.5q123 0 191.5 -66.5 t68.5 -173.5q0 -131 -83.5 -199.5t-209.5 -68.5q-99 0 -209 43v157h49v-116q83 -31 170 -31q25 0 51.5 4t60.5 17.5t60 35.5t44 62.5t18 93.5q0 32 -9.5 61.5t-31 57.5t-63 44.5t-99.5 16.5q-67 0 -129.5 -22.5t-99.5 -46.5z" />
<glyph unicode="&#x2158;" horiz-adv-x="1585" d="M70 649l397 570h63q-5 -9 -98.5 -143t-184 -264t-87.5 -126h309v264l53 70v-334h92v-59h-92v-176h-51v176h-393zM256 -61l991 1345h62l-990 -1345h-63zM1020 375l10 393h424l-6 -57h-365q-1 -17 -2 -44.5t-3 -86t-3.5 -97t-1.5 -37.5q41 23 97 36.5t94 13.5 q123 0 191.5 -66.5t68.5 -173.5q0 -131 -83.5 -199.5t-209.5 -68.5q-99 0 -209 43v157h49v-116q83 -31 170 -31q25 0 51.5 4t60.5 17.5t60 35.5t44 62.5t18 93.5q0 32 -9.5 61.5t-31 57.5t-63 44.5t-99.5 16.5q-67 0 -130 -22.5t-100 -46.5z" />
<glyph unicode="&#x215b;" horiz-adv-x="1599" d="M174 451v49h176v602q-10 -18 -51.5 -46.5t-78.5 -47.5l-36 -19v55q5 3 14.5 9t37 25t52.5 39t56 49t53 57h6v-723h175v-49h-404zM258 -61l991 1345h62l-989 -1345h-64zM975 211q0 61 41 114t106 76q-56 23 -88.5 69t-32.5 99q0 89 65 148t173 59q106 0 172 -58t66 -143 q0 -56 -30.5 -102t-86.5 -72q65 -23 104 -74t39 -112q0 -97 -72.5 -162t-189.5 -65q-116 0 -191 65t-75 158zM1030 207q0 -74 57.5 -121t153.5 -47t152.5 47t56.5 127q0 70 -61 114t-150 44q-88 0 -148.5 -46.5t-60.5 -117.5zM1053 575q0 -63 51 -104t137 -41q87 0 136.5 42 t49.5 110q0 62 -53 104.5t-135 42.5t-134 -44t-52 -110z" />
<glyph unicode="&#x215c;" horiz-adv-x="1605" d="M129 485v52q127 -48 227 -48q82 0 135.5 43.5t53.5 131.5q0 59 -34 99t-82.5 55t-104.5 11v56q90 -3 146 40t56 107q0 74 -53.5 109t-128.5 35q-65 0 -156 -31v-123h-49v158q114 47 205 47q39 0 77 -10t74 -31.5t58 -62t22 -95.5q0 -65 -44.5 -111t-106.5 -57l6 -4 q73 -12 118.5 -62.5t45.5 -127.5q0 -61 -24.5 -108t-63 -71.5t-76 -36.5t-70.5 -12q-116 0 -231 47zM262 -61l991 1345h62l-989 -1345h-64zM979 211q0 61 41 114t106 76q-56 23 -88 69t-32 99q0 89 64.5 148t172.5 59q106 0 172 -58t66 -143q0 -56 -30.5 -102t-86.5 -72 q65 -23 104 -74t39 -112q0 -97 -72.5 -162t-189.5 -65q-116 0 -191 65t-75 158zM1034 207q0 -74 57.5 -121t153.5 -47t152.5 47t56.5 127q0 70 -61 114t-150 44q-88 0 -148.5 -46.5t-60.5 -117.5zM1057 575q0 -63 51 -104t137 -41q87 0 137 42t50 110q0 62 -53.5 104.5 t-135.5 42.5t-134 -44t-52 -110z" />
<glyph unicode="&#x215d;" horiz-adv-x="1599" d="M113 825l10 394h424l-6 -58h-365q-1 -17 -2 -44.5t-3 -85.5t-3.5 -96.5t-1.5 -37.5q41 23 96.5 36t93.5 13q123 0 191.5 -66t68.5 -173q0 -131 -83.5 -200t-208.5 -69q-99 0 -209 43v158h49v-117q81 -30 170 -30q25 0 51.5 4t60.5 17.5t59.5 35.5t43.5 62.5t18 93.5 q0 32 -9.5 61.5t-30.5 57.5t-62.5 44.5t-99.5 16.5q-67 0 -129.5 -22.5t-100.5 -47.5zM279 -61l991 1345h61l-989 -1345h-63zM973 211q0 61 41 114t106 76q-56 23 -88.5 69t-32.5 99q0 89 65 148t173 59q106 0 172 -58t66 -143q0 -56 -30.5 -102t-86.5 -72q65 -23 104 -74 t39 -112q0 -97 -72.5 -162t-189.5 -65q-116 0 -191 65t-75 158zM1028 207q0 -74 57.5 -121t153.5 -47t152.5 47t56.5 127q0 70 -61 114t-150 44q-88 0 -148.5 -46.5t-60.5 -117.5zM1051 575q0 -63 51 -104t137 -41q87 0 136.5 42t49.5 110q0 62 -53 104.5t-135 42.5 t-134 -44t-52 -110z" />
<glyph unicode="&#x215e;" horiz-adv-x="1611" d="M109 1020v199h479l8 -11q-121 -140 -194.5 -359.5t-75.5 -397.5h-52q0 167 64 366.5t162 343.5q-252 2 -342 2v-143h-49zM160 -61l991 1345h61l-989 -1345h-63zM874 211q0 61 41.5 114t106.5 76q-56 23 -88.5 69t-32.5 99q0 89 65 148t173 59q106 0 171.5 -58t65.5 -143 q0 -56 -30 -102t-86 -72q65 -23 104 -74t39 -112q0 -97 -72.5 -162t-189.5 -65q-116 0 -191.5 65t-75.5 158zM930 207q0 -74 57.5 -121t153.5 -47t152.5 47t56.5 127q0 70 -61 114t-150 44q-88 0 -148.5 -46.5t-60.5 -117.5zM952 575q0 -63 51.5 -104t137.5 -41 q87 0 136.5 42t49.5 110q0 62 -53 104.5t-135 42.5t-134.5 -44.5t-52.5 -109.5z" />
<glyph unicode="&#x2190;" horiz-adv-x="1388" d="M82 524l569 566l45 -48q-94 -94 -177.5 -178t-138.5 -137.5t-94.5 -92.5t-60.5 -59.5t-22 -21.5t26.5 -1t110 0.5t195 1t322 1t450.5 0.5v-66q-616 1 -1032 7h-72q-2 1 44.5 -45t175.5 -173.5t273 -271.5l-45 -49z" />
<glyph unicode="&#x2191;" horiz-adv-x="1255" d="M61 655l566 568l567 -568l-49 -45q-418 418 -488 494v-110q4 -435 5 -994h-66q0 533 2 974v130l-387 -393q-49 -49 -100 -101z" />
<glyph unicode="&#x2192;" horiz-adv-x="1388" d="M82 489v66h337.5t267.5 -0.5t198.5 -1t144.5 -0.5t90.5 -0.5t51 0t12.5 0.5l-6 6q-6 6 -17.5 17t-28.5 28t-41.5 41t-53 52t-66.5 65.5t-79 79t-93 93.5l-107 107l45 48l570 -566l-570 -567l-45 49q93 93 180.5 180t141.5 140t96 94.5t59.5 59t16.5 16.5h-71 q-415 -6 -1033 -7z" />
<glyph unicode="&#x2193;" horiz-adv-x="1255" d="M61 551l50 45q427 -429 487 -496q1 -2 1 24.5t-0.5 108.5t-1 194.5t-1 323.5t-0.5 455h66q-1 -560 -5 -994v-112l352 359q66 67 136 137l49 -45l-567 -569z" />
<glyph unicode="&#x2196;" horiz-adv-x="1400" d="M272 182v799h799v-66q-622 0 -694 5l79 -79q311 -307 705 -700l-47 -47q-432 434 -726 733l-52 52q0 1 -0.5 -10.5t0 -39.5t0.5 -65.5t0.5 -97.5t1 -127t0.5 -162v-195h-66z" />
<glyph unicode="&#x2197;" horiz-adv-x="1400" d="M272 141q781 778 785 779l-516 -5h-181v66h801v-799h-67q0 663 4 697q2 2 -50 -50t-259 -260.5t-472 -474.5z" />
<glyph unicode="&#x2198;" horiz-adv-x="1400" d="M272 94v801h66v-195t-0.5 -162t-1 -126.5t-0.5 -97.5t-0.5 -65.5t0 -39t0.5 -10.5l58 58q297 301 720 724l47 -45q-457 -457 -744 -739l-40 -39l599 4h95v-68h-799z" />
<glyph unicode="&#x2199;" horiz-adv-x="1400" d="M272 936l45 45q339 -339 654 -656l127 -126l-4 578v118h67v-801h-801v68q668 0 697 -4l-333 328q-194 192 -452 450z" />
<glyph unicode="&#x2202;" horiz-adv-x="1085" d="M35 504q0 108 38.5 205t106 168.5t164.5 113t209 41.5q64 0 128.5 -14t130.5 -45t118 -90.5t74 -139.5q-5 107 -42.5 231.5t-115.5 231.5q-62 87 -153.5 160t-196.5 109l26 67q262 -103 385 -293q129 -195 150 -448q10 -110 10 -193q0 -97 -18 -184.5t-58 -166.5 t-99 -138t-147 -96t-196 -43q-224 0 -369 150t-145 374zM102 504q0 -79 29.5 -157t84 -144t141.5 -107t192 -41q84 0 157 28t124.5 74t88.5 105t54.5 122t17.5 124q0 120 -52 221t-154.5 164t-235.5 63q-112 0 -201 -42t-141 -109.5t-78.5 -144.5t-26.5 -156z" />
<glyph unicode="&#x2206;" horiz-adv-x="1275" d="M10 0l570 1384h125l561 -1384h-1256zM123 72h1032l-516 1259z" />
<glyph unicode="&#x220f;" horiz-adv-x="1159" d="M123 -236v1627h913v-1627h-65v1561h-785v-1561h-63z" />
<glyph unicode="&#x2211;" horiz-adv-x="1126" d="M82 -168l547 746l-529 749v64h936v-62h-858l527 -754l-549 -747h891v-64h-965v68z" />
<glyph unicode="&#x2212;" horiz-adv-x="854" d="M92 461v65h672v-65h-672z" />
<glyph unicode="&#x2215;" horiz-adv-x="225" d="M-414 -61l992 1345h61l-989 -1345h-64z" />
<glyph unicode="&#x2219;" horiz-adv-x="356" d="M109 532q0 29 19.5 50.5t47.5 21.5q29 0 50.5 -22t21.5 -50q0 -29 -21 -49t-51 -20q-29 0 -48 20t-19 49z" />
<glyph unicode="&#x221a;" horiz-adv-x="1153" d="M84 233l203 105l256 -516l458 1294l70 -22l-524 -1446l-291 598l-137 -74zM541 -371l6 19l8 -19h-14z" />
<glyph unicode="&#x221e;" horiz-adv-x="1411" d="M82 586q0 126 78.5 208.5t204.5 82.5q97 0 173.5 -47t176.5 -175q96 119 176 170.5t176 51.5q121 0 191.5 -77.5t70.5 -201.5q0 -127 -78 -210t-202 -83q-101 0 -176 47.5t-175 173.5q-104 -125 -177.5 -172t-168.5 -47q-121 0 -195.5 77t-74.5 202zM164 596 q0 -87 52.5 -151t135.5 -64q88 0 157 49t146 150q-96 121 -134 156q-74 69 -165 69q-85 0 -138.5 -62t-53.5 -147zM758 602q99 -119 136 -152q78 -71 161 -71q87 0 139.5 60t52.5 149t-50 150t-136 61q-80 0 -148.5 -42.5t-154.5 -154.5z" />
<glyph unicode="&#x222b;" d="M-283 -385q99 -55 220 -55q180 0 219 135q14 55 14 209v1241q0 121 12 172q27 94 106 147.5t206 53.5q110 0 196 -48v-167h-65v122q-72 27 -154 27q-183 0 -217 -137q-16 -54 -16 -209v-1241q0 -117 -13 -172q-27 -94 -105.5 -146.5t-205.5 -52.5q-112 0 -197 47v74z" />
<glyph unicode="&#x2248;" horiz-adv-x="878" d="M102 424q0 84 48.5 131t128.5 47q21 0 39 -2.5t36.5 -8.5t30 -10.5t35.5 -16t37 -17.5q15 -6 44.5 -19.5t41.5 -18t34 -9t44 -4.5q89 0 104 116h51q0 -87 -47.5 -132.5t-126.5 -45.5q-19 0 -35.5 2t-36 8.5l-30 10t-38.5 15.5t-40 17q-16 7 -47 21t-44 19.5t-33.5 10.5 t-39.5 5q-42 0 -68 -30.5t-32 -88.5h-56zM102 625q0 83 48.5 129.5t128.5 46.5q22 0 39 -2t37 -8.5t28.5 -9.5t36.5 -16t37 -17q14 -6 44.5 -20.5t42 -19t33.5 -9.5t44 -5q89 0 104 117h51q0 -87 -47.5 -132.5t-126.5 -45.5q-16 0 -31.5 2t-26.5 4.5t-29 9t-26.5 10t-32 14 t-34.5 15.5t-38.5 17t-36.5 15.5t-27.5 10t-32.5 8.5t-29 2q-88 0 -100 -116h-56z" />
<glyph unicode="&#x2260;" horiz-adv-x="993" d="M66 399v68h296l168 244h-464v65h509l168 240l54 -35l-140 -205h244v-65h-289l-170 -244h459v-68h-504l-186 -270l-53 39l159 231h-251z" />
<glyph unicode="&#x2264;" horiz-adv-x="944" d="M90 6v70h764v-70h-764zM90 514v2l764 410v-78l-629 -336l629 -332v-78z" />
<glyph unicode="&#x2265;" horiz-adv-x="944" d="M90 6v70h764v-70h-764zM90 102v78l629 332l-629 336v78l764 -410v-2z" />
<glyph unicode="&#x25ca;" horiz-adv-x="1034" d="M104 743l404 770h18l402 -770l-402 -770h-18zM186 743l328 -632l334 632l-334 633z" />
<glyph unicode="&#x25fc;" horiz-adv-x="1013" d="M0 0v1014h1014v-1014h-1014z" />
<glyph unicode="&#xf6c3;" horiz-adv-x="161" d="M25 -442q53 79 90 173t43 171l96 -4q-45 -202 -172 -367z" />
<glyph unicode="&#xf8ff;" horiz-adv-x="1185" d="M137 440q0 92 36 176t96.5 144.5t144.5 96.5t176 36q187 0 318.5 -132.5t131.5 -320.5q0 -189 -131.5 -321.5t-318.5 -132.5q-123 0 -227.5 60.5t-165 165t-60.5 228.5zM238 440q0 -105 54 -190t144 -129l-164 475q-34 -69 -34 -156zM352 700l99 -282l127 373 q-132 -6 -226 -91zM463 111q61 -23 127 -23t125 21l-125 380zM604 791l131 -373l99 274q-96 93 -230 99zM739 115q91 43 147 131t56 194q0 60 -33 146z" />
<glyph unicode="&#xfb06;" horiz-adv-x="1507" d="M102 66v264h68v-219q119 -64 276 -64q139 0 208 51.5t69 159.5q0 71 -51.5 113.5t-179.5 91.5l-130 49q-118 43 -171.5 101t-53.5 157q0 118 85 189t239 71q29 0 65 -4q-92 92 -92 217q0 69 29.5 124.5t78 88.5t106.5 50.5t118 17.5q255 0 317 -189q17 -55 17 -157v-168 h342v-64h-342v-561q0 -131 4 -184q6 -72 52 -116t130 -44q112 0 209 51v-69q-34 -19 -92.5 -33.5t-99.5 -14.5q-224 0 -263 197q-8 49 -8 170v604h-166v64h166v176q0 89 -20 143q-48 127 -256 127q-67 0 -117.5 -18.5t-78.5 -49.5t-42 -65.5t-14 -71.5q0 -66 32 -135 t101 -106q81 -23 121 -41v-82q-135 76 -301 76q-254 0 -254 -191q0 -62 41 -107.5t141 -82.5l115 -43q63 -24 101 -40.5t79 -40.5t62 -50t35 -63t14 -83q0 -75 -29 -131t-79 -88t-110 -47.5t-129 -15.5q-178 0 -342 86z" />
<glyph horiz-adv-x="862" d="M260 696q0 70 50.5 121t121.5 51q69 0 120.5 -51.5t51.5 -120.5q0 -71 -51 -120.5t-121 -49.5q-72 0 -122 49t-50 121z" />
<glyph horiz-adv-x="1429" d="M102 330q0 123 69.5 207t182.5 108l8 4q-98 20 -163.5 92.5t-65.5 176.5q0 86 32.5 150t86 98t112 49.5t121.5 15.5q94 0 186.5 -22t141.5 -44v-219h-70v174q-160 47 -256 47q-73 0 -136 -24.5t-106.5 -81t-43.5 -137.5q0 -100 90.5 -174t228.5 -74v-70 q-72 0 -133.5 -14.5t-112 -45t-79.5 -83t-29 -123.5q0 -141 85.5 -209t215.5 -68h358q149 0 176 134q13 60 13 200v549h-137v64h137l4 258l61 26v-284h324v-64h-324v-577q0 -119 -6 -168q-12 -94 -78.5 -147.5t-171.5 -53.5h-360q-37 0 -73.5 5.5t-79 18.5t-78.5 38 t-66 59.5t-47 88.5t-17 120z" />
<glyph d="M0 1016v67h250v-1083h-74v1016h-176z" />
<glyph horiz-adv-x="1067" d="M80 633q0 121 61.5 212t160 136t218.5 45q125 0 220 -53t151 -144q92 -152 92 -391q0 -185 -61 -333t-180 -236t-277 -88q-71 0 -126.5 8t-99 25.5t-66 29.5t-58.5 35v189h65v-154q126 -68 285 -68q169 0 273.5 101.5t152.5 273.5q27 99 27 195q0 42 -7 100 q-35 -120 -151.5 -193t-251.5 -73q-84 0 -161 26.5t-136.5 74t-95 121t-35.5 161.5zM147 637q0 -62 20.5 -116.5t61.5 -99.5t110 -71t159 -26q86 0 159 28.5t118.5 74t71 100.5t25.5 110q0 134 -94 230t-264 96q-173 0 -270 -95t-97 -231z" />
<glyph horiz-adv-x="890" d="M82 -92q193 -74 362 -74q83 0 149.5 31t109 99.5t42.5 166.5q0 93 -54 158t-133 90.5t-167 17.5v74q142 -1 231 70.5t89 171.5q0 62 -25 110t-67 76.5t-91.5 42.5t-103.5 14q-123 0 -262 -47v-151h-64v188q171 76 328 76q63 0 121.5 -15.5t112 -49.5t86 -98t32.5 -150 q0 -104 -63 -177t-160 -92l8 -4q112 -24 179 -107.5t67 -207.5q0 -79 -25 -142t-63 -101t-88 -63t-95 -34.5t-89 -9.5q-194 0 -367 73v64z" />
<glyph horiz-adv-x="999" d="M45 106l633 906h84q-521 -752 -596 -852q85 6 518 6v393l76 121v-514h160v-76h-160v-301h-74v301h-629z" />
<glyph horiz-adv-x="987" d="M102 29h66v-140q143 -55 278 -55q38 0 82 8.5t97 34t95 63.5t70.5 104t28.5 149q0 40 -8.5 79.5t-31 81.5t-57.5 73.5t-93 52t-131 20.5q-164 0 -367 -129l-16 12l14 627h664l-7 -72h-585q-1 -28 -2.5 -73.5t-4.5 -141.5l-5 -160t-1 -63q61 35 148 53t151 18 q192 0 295 -105.5t103 -268.5q0 -202 -127 -315t-324 -113q-188 0 -332 71v189z" />
<glyph horiz-adv-x="899" d="M43 823v189h799l14 -15q-192 -222 -309 -572.5t-119 -635.5h-72q0 275 103.5 599.5t271.5 557.5q-91 -6 -622 -6v-117h-66z" />
<glyph horiz-adv-x="970" d="M82 334q0 98 56 177.5t159 125.5q-90 46 -139 115t-49 153q0 139 102 232.5t272 93.5t274.5 -91.5t104.5 -226.5q0 -169 -184 -276q102 -44 156.5 -121t54.5 -176q0 -154 -109.5 -257t-292.5 -103q-182 0 -293.5 103t-111.5 251zM152 330q0 -122 92.5 -204.5t242.5 -82.5 q151 0 241.5 82.5t90.5 212.5q0 114 -98.5 190t-237.5 76q-137 0 -234 -80t-97 -194zM178 915q0 -110 85.5 -179.5t223.5 -69.5t222 71t84 185q0 109 -85 175t-225 66q-139 0 -222 -68.5t-83 -179.5z" />
<glyph horiz-adv-x="1067" d="M82 567q0 105 21.5 202t64.5 180t104 144.5t145.5 96.5t182.5 35q150 0 299 -68v-188h-61v145q-119 45 -238 45q-105 0 -187.5 -42t-131 -105t-80 -145.5t-43 -154.5t-11.5 -141q0 -37 5 -77q30 100 144.5 181t260.5 81q195 0 311.5 -104t116.5 -281q0 -179 -128 -285 t-320 -106q-236 0 -355 186q-100 154 -100 401zM193 369q0 -97 56 -174t135 -114.5t161 -37.5q177 0 275 93t98 233q0 139 -91 226t-260 87q-83 0 -155 -28t-119 -73.5t-73.5 -100.5t-26.5 -111z" />
<glyph horiz-adv-x="860" d="M125 0v78h283v758q-16 -29 -83 -74t-125 -75l-59 -30v80q9 5 24 14t58 38.5t83 60.5t88.5 77t84.5 91v-940h275v-78h-629zM479 1018v4h2q-2 -2 -2 -4z" />
<glyph horiz-adv-x="944" d="M57 0v45q408 281 412 283q29 23 76.5 58t79.5 58.5t70.5 58.5t61 65.5t38.5 71t16 83.5q0 64 -32 111t-82.5 70.5t-100 34.5t-98.5 11q-145 0 -279 -65v-127h-65v168q46 34 142 65t193 31q74 0 141 -16t126 -50t94 -94t35 -139q0 -38 -9.5 -74t-23.5 -65t-39.5 -60.5 t-47 -53.5t-57 -51.5t-58.5 -46t-63 -45.5t-59 -44q-86 -64 -162 -116.5t-107 -72.5t-32 -22q110 6 635 6v-78h-805z" />
<glyph horiz-adv-x="1126" d="M86 502q0 107 28.5 196t75.5 148.5t109 101t128 60t134 18.5q89 0 172 -32t151.5 -93.5t110 -165t41.5 -233.5q0 -122 -41 -223.5t-108.5 -165t-151.5 -98.5t-174 -35q-71 0 -139 21t-129 64t-107 104t-73 147t-27 186zM158 502q0 -123 49 -227t143 -167t213 -63 q118 0 211 63t142 167t49 227q0 201 -111.5 330t-290.5 129q-180 0 -292.5 -127.5t-112.5 -331.5z" />
<glyph horiz-adv-x="702" d="M51 831q0 171 84 283.5t215 112.5q143 0 222 -110t79 -286q0 -173 -80.5 -283t-222.5 -110t-219.5 109.5t-77.5 283.5zM104 831q0 -60 13.5 -118t41.5 -109.5t78 -83t115 -31.5t114.5 31.5t77 83t41 109t13.5 118.5q0 63 -13 121t-40.5 110t-77 83t-115.5 31 q-64 0 -113.5 -31.5t-78 -83.5t-42.5 -110.5t-14 -119.5z" />
<glyph horiz-adv-x="712" d="M154 451v49h176v602q-10 -18 -51.5 -46.5t-78.5 -47.5l-36 -19v55q5 3 14.5 9t37 25t52.5 39t56 49t53 57h6v-723h174v-49h-403z" />
<glyph horiz-adv-x="698" d="M90 451v30q21 20 56 51.5t108.5 99t121.5 111t46 41.5q3 3 10 10.5t19.5 22t23.5 25.5q82 86 82 172q0 46 -20 80.5t-51.5 51.5t-62.5 24.5t-61 7.5q-77 0 -161 -37v-119h-49v143q29 22 87 42t117 20q100 0 174 -54t74 -163q0 -102 -72 -185q-31 -38 -73 -80l-271 -245 h410v-49h-508z" />
<glyph horiz-adv-x="706" d="M129 485v52q127 -48 227 -48q82 0 135.5 43.5t53.5 131.5q0 59 -34 99t-82.5 55t-104.5 11v56q90 -3 146 40t56 107q0 74 -53.5 109t-128.5 35q-65 0 -156 -31v-123h-49v158q114 47 205 47q39 0 77 -10t74 -31.5t58 -62t22 -95.5q0 -65 -44.5 -111t-106.5 -57l6 -4 q73 -12 118.5 -62.5t45.5 -127.5q0 -61 -24.5 -108t-63 -71.5t-76 -36.5t-70.5 -12q-116 0 -231 47z" />
<glyph horiz-adv-x="694" d="M70 649l397 570h63q-5 -9 -98.5 -143t-184 -264t-87.5 -126h309v264l53 70v-334h92v-59h-92v-176h-51v176h-393z" />
<glyph horiz-adv-x="700" d="M113 825l10 394h424l-6 -58h-365q-1 -17 -2 -44.5t-3 -85.5t-3.5 -96.5t-1.5 -37.5q41 23 96.5 36t93.5 13q123 0 191.5 -66t68.5 -173q0 -131 -83.5 -200t-208.5 -69q-99 0 -209 43v158h49v-117q81 -30 170 -30q25 0 51.5 4t60.5 17.5t59.5 35.5t43.5 62.5t18 93.5 q0 32 -9.5 61.5t-30.5 57.5t-62.5 44.5t-99.5 16.5q-67 0 -129.5 -22.5t-100.5 -47.5z" />
<glyph horiz-adv-x="698" d="M68 807q0 113 36.5 206t111 151.5t175.5 58.5q87 0 187 -41v-160h-50v121q-74 24 -137 24q-60 0 -107.5 -21.5t-76.5 -54.5t-49 -78.5t-29 -87t-12 -87.5q0 -7 -0.5 -21.5t-0.5 -27t1 -25.5q29 76 94.5 119t153.5 43q129 0 196 -70q70 -67 70 -172q0 -113 -80 -179.5 t-199 -66.5q-77 0 -135.5 35t-91.5 92q-57 98 -57 242zM143 684q0 -84 66.5 -138t146.5 -54q110 0 168 54.5t58 137.5q0 80 -53.5 132t-157.5 52t-166 -55t-62 -129z" />
<glyph horiz-adv-x="704" d="M109 1020v199h479l8 -11q-121 -140 -194.5 -359.5t-75.5 -397.5h-52q0 167 64 366.5t162 343.5q-252 2 -342 2v-143h-49z" />
<glyph horiz-adv-x="698" d="M86 662q0 61 41 114t106 76q-56 23 -88 69t-32 99q0 89 64.5 148t172.5 59q106 0 172 -58t66 -143q0 -56 -30.5 -102t-86.5 -72q65 -23 104 -74t39 -112q0 -97 -73 -162.5t-189 -65.5t-191 65.5t-75 158.5zM141 657q0 -74 57.5 -121t153.5 -47t152.5 47.5t56.5 127.5 q0 70 -61 113.5t-150 43.5q-88 0 -148.5 -46.5t-60.5 -117.5zM164 1026q0 -63 51 -104t137 -41q87 0 137 42t50 109q0 62 -53.5 105t-135.5 43t-134 -44t-52 -110z" />
<glyph horiz-adv-x="698" d="M68 975q0 114 80 183t194 69q149 0 231 -129q58 -96 58 -246q0 -115 -38.5 -208.5t-112.5 -149.5t-171 -56q-59 0 -107.5 12t-62 19.5t-51.5 30.5v157h49v-125q70 -38 172 -38q57 0 103 19.5t74 52t44.5 62t26.5 62.5q35 119 21 207q-11 -76 -85.5 -121t-156.5 -45 q-109 0 -188.5 66t-79.5 178zM119 977q0 -76 51 -131t160 -55q104 0 164.5 58.5t60.5 127.5q0 78 -55.5 137.5t-161.5 59.5q-105 0 -162 -59t-57 -138z" />
<glyph horiz-adv-x="233" d="M57 481q0 17 12 30t29 13q15 0 28 -13t13 -30q0 -15 -13 -27t-28 -12q-17 0 -29 12t-12 27z" />
<glyph horiz-adv-x="237" d="M6 238q37 57 62.5 135t25.5 149l53 -2q-4 -88 -36 -165t-74 -130z" />
<glyph horiz-adv-x="432" d="M49 737v43h332v-43h-332z" />
<glyph horiz-adv-x="401" d="M43 717q0 160 47 314.5t135 277.5h31q-166 -302 -166 -596q0 -281 164 -578h-31q-86 126 -133 276.5t-47 305.5z" />
<glyph horiz-adv-x="401" d="M143 1309h35q87 -123 133.5 -277.5t46.5 -314.5q0 -155 -47 -305.5t-133 -276.5h-33q166 307 166 578q0 291 -168 596z" />
<glyph horiz-adv-x="638" d="M43 514v68q124 -99 276 -99q102 0 167 49.5t65 147.5q0 67 -43.5 108.5t-142.5 79.5l-66 25q-41 16 -62.5 25.5t-52 25t-46 30.5t-31.5 37t-22.5 49t-6.5 62q0 87 62.5 143t166.5 62v123h49v-123q125 -5 207 -47v-178h-49v143q-80 39 -178 39q-95 0 -153 -40t-58 -122 q0 -33 11.5 -59.5t25.5 -43t44 -33.5t50 -25.5t59 -22.5l78 -31q101 -38 153 -89t52 -138q0 -58 -21 -103.5t-56.5 -72.5t-76.5 -42t-88 -20v-135h-49v133q-152 3 -264 74z" />
<glyph horiz-adv-x="616" d="M51 764q0 144 77.5 233t211.5 101v133h49v-131q77 -2 164 -35v-158h-45v129q-57 23 -141 23q-68 0 -122 -26t-86 -69.5t-48.5 -94t-16.5 -103.5q0 -125 68 -205t192 -80q115 0 209 64v-45q-82 -50 -174 -58v-137h-49v133q-139 4 -214 91.5t-75 234.5z" />
<glyph horiz-adv-x="819" d="M55 451v38h117v400h-84v39h84v121q0 129 75.5 198.5t207.5 69.5q110 0 235 -43v-199h-41v170q-97 33 -196 33q-242 0 -242 -244v-106h246v-39h-246v-400h522v-38h-678z" />
<glyph horiz-adv-x="757" d="M-10 1268v41h86l309 -465q20 30 52.5 79.5t101.5 153.5t112.5 170.5t40.5 61.5h51l-272 -412h168v-49h-203l-30 -47v-92h231v-50h-231v-208h-48v208h-241v50h241v92l-30 47h-207v49h172l-244 371h-59z" />
<glyph horiz-adv-x="1009" d="M18 811l50 51h495l-45 -51h-221q21 -149 118.5 -241.5t248.5 -92.5q144 0 297 86v-53q-137 -76 -302 -76q-93 0 -168 31t-122.5 85t-76 119.5t-38.5 141.5h-236zM113 911l49 52h94q26 165 141.5 262.5t268.5 97.5q145 0 278 -61v-158h-41v127q-100 51 -239 51 q-137 0 -239 -87.5t-126 -231.5h360l-45 -52h-501z" />
<glyph horiz-adv-x="258" d="M-178 166v47q58 -35 135 -35q59 0 93 23.5t44 62.5t10 133v658h-110v39h110v86q0 73 9 108q37 125 190 125q73 0 129 -29v-157h-41v131q-38 14 -96 14q-119 0 -139 -86q-9 -35 -9 -129v-63h197v-39h-197v-654q0 -104 -8 -139q-15 -59 -64.5 -92t-129.5 -33q-74 0 -123 29 z" />
<glyph horiz-adv-x="233" d="M57 829q0 17 12 30t29 13q15 0 28 -13t13 -30q0 -15 -13 -26.5t-28 -11.5q-17 0 -29 11.5t-12 26.5z" />
<glyph horiz-adv-x="237" d="M6 586q37 57 62.5 135t25.5 149l53 -2q-4 -88 -36 -165t-74 -130z" />
<glyph horiz-adv-x="432" d="M49 1085v43h332v-43h-332z" />
<glyph horiz-adv-x="638" d="M43 862v68q124 -99 276 -99q102 0 167 49.5t65 147.5q0 67 -43.5 109t-142.5 80l-66 24q-41 16 -62.5 25.5t-52 25t-46 30.5t-31.5 37t-22.5 49t-6.5 62q0 87 62.5 143t166.5 62v123h49v-123q125 -5 207 -47v-178h-49v143q-80 39 -178 39q-95 0 -153 -40t-58 -122 q0 -33 11.5 -59.5t25.5 -43t44 -33.5t50 -25.5t59 -22.5l78 -31q101 -38 153 -89t52 -138q0 -58 -21 -103t-56.5 -72t-76.5 -42t-88 -20v-136h-49v133q-152 3 -264 74z" />
<glyph horiz-adv-x="616" d="M51 1112q0 144 77.5 233t211.5 101v133h49v-131q77 -2 164 -35v-158h-45v129q-57 23 -141 23q-68 0 -122 -26t-86 -69.5t-48.5 -94t-16.5 -103.5q0 -125 68 -205t192 -80q115 0 209 64v-45q-80 -48 -174 -57v-138h-49v133q-139 4 -214 91.5t-75 234.5z" />
<glyph horiz-adv-x="819" d="M55 799v39h117v399h-84v39h84v121q0 129 75.5 198.5t207.5 69.5q110 0 235 -43v-199h-41v170q-97 33 -196 33q-242 0 -242 -244v-106h246v-39h-246v-399h522v-39h-678z" />
<glyph horiz-adv-x="757" d="M-10 1616v41h86l309 -465q20 30 52.5 79.5t101.5 153.5t112.5 170.5t40.5 61.5h51l-272 -412h168v-49h-203l-30 -47v-92h231v-49h-231v-209h-48v209h-241v49h241v92l-30 47h-207v49h172l-244 371h-59z" />
<glyph horiz-adv-x="1009" d="M18 1159l50 51h495l-45 -51h-221q21 -149 118.5 -241.5t248.5 -92.5q144 0 297 86v-53q-137 -76 -302 -76q-93 0 -168 31t-122.5 85t-76 119.5t-38.5 141.5h-236zM113 1260l49 51h94q26 165 141.5 262.5t268.5 97.5q145 0 278 -61v-158h-41v127q-100 51 -239 51 q-137 0 -239 -87.5t-126 -231.5h360l-45 -51h-501z" />
<glyph horiz-adv-x="258" d="M-178 514v47q58 -35 135 -35q59 0 93 23.5t44 62.5t10 133v658h-110v39h110v86q0 73 9 108q37 125 190 125q75 0 129 -28v-158h-41v131q-38 14 -96 14q-119 0 -139 -86q-9 -35 -9 -129v-63h197v-39h-197v-653q0 -105 -8 -140q-15 -59 -64.5 -92t-129.5 -33q-74 0 -123 29 z" />
<glyph horiz-adv-x="233" d="M57 31q0 17 12 30t29 13q15 0 28 -13t13 -30q0 -15 -13 -27t-28 -12q-17 0 -29 12t-12 27z" />
<glyph horiz-adv-x="237" d="M6 -213q36 57 62 135.5t26 149.5l53 -2q-4 -88 -36 -165t-74 -130z" />
<glyph horiz-adv-x="432" d="M49 287v43h332v-43h-332z" />
<glyph horiz-adv-x="638" d="M43 63v68q123 -98 276 -98q102 0 167 49t65 147q0 67 -43.5 109t-142.5 80l-66 24q-49 19 -74.5 30.5t-58.5 31.5t-49 41t-27.5 53.5t-11.5 73.5q0 87 62.5 143t166.5 62v122h49v-122q123 -5 207 -48v-178h-49v144q-80 39 -178 39q-95 0 -153 -40t-58 -122 q0 -41 14 -70.5t45.5 -51.5t57 -33.5t73.5 -29.5l78 -30q101 -38 153 -89.5t52 -138.5q0 -58 -21 -103t-56.5 -72t-76.5 -42t-88 -20v-135h-49v133q-153 3 -264 73z" />
<glyph horiz-adv-x="616" d="M51 313q0 144 77.5 233t211.5 101v133h49v-131q77 -2 164 -35v-157h-45v129q-55 22 -141 22q-68 0 -122 -26t-86 -69.5t-48.5 -94t-16.5 -103.5q0 -125 67.5 -204.5t192.5 -79.5q117 0 209 63v-45q-80 -48 -174 -57v-137h-49v133q-139 4 -214 91t-75 234z" />
<glyph horiz-adv-x="819" d="M55 0v39h117v399h-84v39h84v121q0 129 75.5 198.5t207.5 69.5q110 0 235 -43v-198h-41v170q-94 32 -196 32q-242 0 -242 -243v-107h246v-39h-246v-399h522v-39h-678z" />
<glyph horiz-adv-x="757" d="M-10 817v41h86l309 -465q20 30 52.5 79.5t101.5 153.5t112.5 170.5t40.5 61.5h51l-272 -412h168v-49h-203l-30 -47v-92h231v-49h-231v-209h-48v209h-241v49h241v92l-30 47h-207v49h172l-244 371h-59z" />
<glyph horiz-adv-x="1009" d="M18 360l50 52h495l-45 -52h-221q21 -149 118 -241t249 -92q144 0 297 86v-54q-135 -75 -302 -75q-93 0 -168 31t-122.5 84.5t-76 119t-38.5 141.5h-236zM113 461l49 51h94q26 165 141.5 262.5t268.5 97.5q145 0 278 -61v-158h-41v127q-100 51 -239 51q-137 0 -239 -87.5 t-126 -231.5h360l-45 -51h-501z" />
<glyph horiz-adv-x="258" d="M-178 -238q57 -34 135 -34q59 0 93 23.5t44 62.5t10 133v657h-110v39h110v86q0 74 9 109q37 125 190 125q73 0 129 -29v-158h-41v131q-41 15 -96 15q-119 0 -139 -86q-9 -35 -9 -129v-64h197v-39h-197v-653q0 -104 -8 -139q-15 -59 -64.5 -92t-129.5 -33q-76 0 -123 28 v47z" />
<glyph horiz-adv-x="702" d="M51 381q0 171 84 283t215 112q144 0 222.5 -109.5t78.5 -285.5q0 -173 -80.5 -283t-222.5 -110t-219.5 109.5t-77.5 283.5zM104 381q0 -60 13.5 -118t41.5 -109.5t78 -83t115 -31.5t114.5 31.5t77 83t41 109t13.5 118.5q0 63 -13 121t-40.5 109.5t-77 82.5t-115.5 31 q-64 0 -113.5 -31.5t-78 -83t-42.5 -110t-14 -119.5z" />
<glyph horiz-adv-x="712" d="M154 0v49h176v602q-10 -18 -51.5 -46t-78.5 -47l-36 -19v55q15 9 39 24.5t81 62.5t93 91h6v-723h174v-49h-403z" />
<glyph horiz-adv-x="698" d="M90 0v31q21 20 56 51.5t108.5 99t121.5 111t46 41.5q4 3 10.5 10t19.5 21.5t23 25.5q82 86 82 172q0 46 -20 80.5t-51.5 51.5t-62.5 24.5t-61 7.5q-77 0 -161 -37v-119h-49v144q29 21 86.5 41t117.5 20q100 0 174 -54t74 -163q0 -101 -72 -184q-31 -38 -73 -80l-271 -246 h410v-49h-508z" />
<glyph horiz-adv-x="706" d="M129 35v51q125 -47 227 -47q82 0 135.5 43t53.5 131q0 59 -34 99.5t-82.5 55.5t-104.5 11v55q90 -3 146 40.5t56 107.5q0 73 -53.5 108t-128.5 35q-65 0 -156 -31v-123h-49v158q114 47 205 47q39 0 77 -10t74 -31t58 -61.5t22 -95.5q0 -65 -44.5 -111t-106.5 -57l6 -4 q73 -12 118.5 -63t45.5 -128q0 -50 -17 -90.5t-42.5 -65t-58 -41.5t-61.5 -23.5t-55 -6.5q-116 0 -231 47z" />
<glyph horiz-adv-x="694" d="M70 199l397 569h63q-5 -9 -98.5 -143t-184 -263.5t-87.5 -125.5h309v264l53 69v-333h92v-60h-92v-176h-51v176h-393z" />
<glyph horiz-adv-x="700" d="M113 375l10 393h424l-6 -57h-365q-1 -17 -2 -44.5t-3 -86t-3.5 -97t-1.5 -37.5q41 23 96.5 36.5t93.5 13.5q123 0 191.5 -66.5t68.5 -173.5q0 -131 -83.5 -199.5t-208.5 -68.5q-99 0 -209 43v157h49v-116q83 -31 170 -31q25 0 51.5 4t60.5 17.5t59.5 35.5t43.5 62.5 t18 93.5q0 32 -9.5 61.5t-30.5 57.5t-62.5 44.5t-99.5 16.5q-67 0 -130 -22.5t-100 -46.5z" />
<glyph horiz-adv-x="698" d="M68 356q0 113 36.5 206t111 151.5t175.5 58.5q87 0 187 -41v-160h-50v121q-77 25 -137 25t-107.5 -21.5t-76.5 -54.5t-49 -79t-29 -87.5t-12 -87.5q0 -7 -0.5 -21.5t-0.5 -27t1 -25.5q29 76 94.5 119t153.5 43q124 0 196 -69q70 -67 70 -173q0 -113 -80 -179t-199 -66 q-77 0 -135.5 35t-91.5 92q-57 98 -57 241zM143 233q0 -84 66.5 -138t146.5 -54q110 0 168 54.5t58 137.5q0 80 -54 132.5t-157 52.5t-165.5 -55.5t-62.5 -129.5z" />
<glyph horiz-adv-x="704" d="M109 569v199h479l8 -10q-121 -140 -194.5 -360t-75.5 -398h-52q0 167 64 367t162 344q-252 2 -342 2v-144h-49z" />
<glyph horiz-adv-x="698" d="M86 211q0 61 41 114t106 76q-56 23 -88 69t-32 99q0 89 64.5 148t172.5 59q106 0 172 -58t66 -143q0 -56 -30.5 -102t-86.5 -72q65 -23 104 -74t39 -112q0 -97 -72.5 -162t-189.5 -65q-116 0 -191 65t-75 158zM141 207q0 -74 57.5 -121t153.5 -47t152.5 47t56.5 127 q0 70 -61 114t-150 44q-88 0 -148.5 -46.5t-60.5 -117.5zM164 575q0 -63 51 -104t137 -41q87 0 137 42t50 110q0 62 -53.5 104.5t-135.5 42.5t-134 -44t-52 -110z" />
<glyph horiz-adv-x="698" d="M68 524q0 114 80 183t194 69q149 0 231 -129q58 -96 58 -246q0 -176 -88 -294.5t-234 -118.5q-60 0 -107.5 11.5t-62.5 19.5t-51 30v158h49v-125q72 -39 172 -39q57 0 103 19.5t74 52t44.5 62.5t26.5 63q35 118 21 206q-11 -76 -85.5 -120.5t-156.5 -44.5 q-109 0 -188.5 65.5t-79.5 177.5zM119 526q0 -76 51 -131t160 -55q104 0 164.5 58.5t60.5 127.5q0 78 -55.5 137.5t-161.5 59.5q-105 0 -162 -59t-57 -138z" />
<glyph horiz-adv-x="233" d="M57 31q0 17 12 30t29 13q15 0 28 -13t13 -30q0 -15 -13 -27t-28 -12q-17 0 -29 12t-12 27z" />
<glyph horiz-adv-x="237" d="M6 -213q36 57 62 135.5t26 149.5l53 -2q-4 -88 -36 -165t-74 -130z" />
<glyph horiz-adv-x="432" d="M49 287v43h332v-43h-332z" />
<glyph horiz-adv-x="401" d="M43 266q0 160 47 314.5t135 277.5h31q-166 -302 -166 -596q0 -280 164 -577h-31q-86 126 -133 276t-47 305z" />
<glyph horiz-adv-x="401" d="M143 858h35q87 -123 133.5 -277.5t46.5 -314.5q0 -155 -47 -305t-133 -276h-33q166 307 166 577q0 291 -168 596z" />
<glyph horiz-adv-x="638" d="M43 63v68q123 -98 276 -98q102 0 167 49t65 147q0 67 -43.5 109t-142.5 80l-66 24q-49 19 -74.5 30.5t-58.5 31.5t-49 41t-27.5 53.5t-11.5 73.5q0 87 62.5 143t166.5 62v122h49v-122q123 -5 207 -48v-178h-49v144q-80 39 -178 39q-95 0 -153 -40t-58 -122 q0 -41 14 -70.5t45.5 -51.5t57 -33.5t73.5 -29.5l78 -30q101 -38 153 -89.5t52 -138.5q0 -58 -21 -103t-56.5 -72t-76.5 -42t-88 -20v-135h-49v133q-153 3 -264 73z" />
<glyph horiz-adv-x="616" d="M51 313q0 144 77.5 233t211.5 101v133h49v-131q77 -2 164 -35v-157h-45v129q-55 22 -141 22q-68 0 -122 -26t-86 -69.5t-48.5 -94t-16.5 -103.5q0 -125 67.5 -204.5t192.5 -79.5q117 0 209 63v-45q-80 -48 -174 -57v-137h-49v133q-139 4 -214 91t-75 234z" />
<glyph horiz-adv-x="819" d="M55 0v39h117v399h-84v39h84v121q0 129 75.5 198.5t207.5 69.5q110 0 235 -43v-198h-41v170q-94 32 -196 32q-242 0 -242 -243v-107h246v-39h-246v-399h522v-39h-678z" />
<glyph horiz-adv-x="757" d="M-10 817v41h86l309 -465q20 30 52.5 79.5t101.5 153.5t112.5 170.5t40.5 61.5h51l-272 -412h168v-49h-203l-30 -47v-92h231v-49h-231v-209h-48v209h-241v49h241v92l-30 47h-207v49h172l-244 371h-59z" />
<glyph horiz-adv-x="1009" d="M18 360l50 52h495l-45 -52h-221q21 -149 118 -241t249 -92q144 0 297 86v-54q-135 -75 -302 -75q-93 0 -168 31t-122.5 84.5t-76 119t-38.5 141.5h-236zM113 461l49 51h94q26 165 141.5 262.5t268.5 97.5q145 0 278 -61v-158h-41v127q-100 51 -239 51q-137 0 -239 -87.5 t-126 -231.5h360l-45 -51h-501z" />
<glyph horiz-adv-x="258" d="M-178 -238q57 -34 135 -34q59 0 93 23.5t44 62.5t10 133v657h-110v39h110v86q0 74 9 109q37 125 190 125q73 0 129 -29v-158h-41v131q-41 15 -96 15q-119 0 -139 -86q-9 -35 -9 -129v-64h197v-39h-197v-653q0 -104 -8 -139q-15 -59 -64.5 -92t-129.5 -33q-76 0 -123 28 v47z" />
<glyph horiz-adv-x="1126" d="M86 502q0 107 28.5 196t75.5 148.5t109 101t128 60t134 18.5q89 0 172 -32t151.5 -93.5t110 -165t41.5 -233.5q0 -122 -41 -223.5t-108.5 -165t-151.5 -98.5t-174 -35q-71 0 -139 21t-129 64t-107 104t-73 147t-27 186zM158 502q0 -123 49 -227t143 -167t213 -63 q118 0 211 63t142 167t49 227q0 201 -111.5 330t-290.5 129q-180 0 -292.5 -127.5t-112.5 -331.5z" />
<glyph horiz-adv-x="1126" d="M268 0v78h283v760q-16 -29 -82.5 -74.5t-124.5 -75.5l-59 -31v82q9 5 24 14t58 38t83 60t88.5 76.5t84.5 90.5v-940h274v-78h-629zM623 1018v4h2q-2 -2 -2 -4z" />
<glyph horiz-adv-x="1126" d="M141 0v45q408 281 412 283q29 23 76.5 58t79.5 58.5t70.5 58.5t61 65.5t38.5 71t16 83.5q0 64 -32 111t-82.5 70.5t-100 34.5t-98.5 11q-145 0 -279 -65v-127h-65v168q46 34 142 65t193 31q74 0 141 -16t126 -50t94 -94t35 -139q0 -38 -9.5 -74t-23.5 -65t-39.5 -60.5 t-47 -53.5t-57 -51.5t-58.5 -46t-63 -45.5t-59 -44q-86 -64 -162 -116.5t-107 -72.5t-32 -22q110 6 635 6v-78h-805z" />
<glyph horiz-adv-x="1126" d="M211 -92q193 -74 362 -74q83 0 149.5 31t109 99.5t42.5 166.5q0 93 -54 158t-133 90.5t-167 17.5v74q142 -1 231 70.5t89 171.5q0 62 -25 110t-67 76.5t-91.5 42.5t-103.5 14q-123 0 -262 -47v-151h-64v188q171 76 328 76q63 0 121.5 -15.5t112 -49.5t86 -98t32.5 -150 q0 -104 -63 -177t-160 -92l8 -4q112 -24 179 -107.5t67 -207.5q0 -79 -25 -142t-63 -101t-88 -63t-95 -34.5t-89 -9.5q-194 0 -367 73v64z" />
<glyph horiz-adv-x="1126" d="M115 104l630 906h86q-561 -804 -595 -850q83 6 518 6v393l73 121v-514h160v-76h-160v-299h-73v299h-629z" />
<glyph horiz-adv-x="1126" d="M188 29h66v-140q143 -55 278 -55q38 0 82 8.5t97 34t95 63.5t70.5 104t28.5 149q0 40 -8.5 79.5t-31 81.5t-57.5 73.5t-93 52t-131 20.5q-164 0 -367 -129l-16 12l14 627h664l-7 -72h-585q-1 -29 -2 -76t-4 -146.5t-4.5 -165.5t-0.5 -65q66 37 151.5 61.5t145.5 24.5 q192 0 295 -105.5t103 -268.5q0 -202 -127 -315t-324 -113q-188 0 -332 71v189z" />
<glyph horiz-adv-x="1126" d="M115 567q0 105 21.5 202t64.5 180t104 144.5t145.5 96.5t182.5 35q150 0 299 -68v-188h-62v145q-119 45 -237 45q-105 0 -187.5 -42t-131 -105t-80 -145.5t-43 -154.5t-11.5 -141q0 -45 4 -77q30 100 144.5 181t261.5 81q195 0 311.5 -104t116.5 -281q0 -179 -128.5 -285 t-320.5 -106q-235 0 -354 186q-100 154 -100 401zM225 369q0 -74 33 -137t84.5 -103.5t113.5 -63t122 -22.5q177 0 274.5 92.5t97.5 233.5q0 139 -90.5 226t-259.5 87q-83 0 -155.5 -28t-119.5 -73.5t-73.5 -100.5t-26.5 -111z" />
<glyph horiz-adv-x="1126" d="M170 823v189h799l14 -15q-192 -222 -309 -572.5t-119 -635.5h-72q0 275 103.5 599.5t271.5 557.5q-91 -6 -622 -6v-117h-66z" />
<glyph horiz-adv-x="1126" d="M158 334q0 99 56.5 178t160.5 125q-92 46 -141.5 115t-49.5 153q0 139 102.5 232.5t272.5 93.5t275.5 -91.5t105.5 -226.5q0 -168 -186 -276q102 -44 156.5 -121t54.5 -176q0 -154 -109.5 -257t-292.5 -103q-182 0 -293.5 103t-111.5 251zM227 330q0 -121 93.5 -204 t242.5 -83q151 0 241.5 82.5t90.5 212.5q0 114 -98.5 190t-237.5 76q-137 0 -234.5 -80t-97.5 -194zM256 915q0 -110 84.5 -179.5t222.5 -69.5q139 0 222 71t83 185q0 109 -85 175t-224 66q-138 0 -220.5 -68.5t-82.5 -179.5z" />
<glyph horiz-adv-x="1126" d="M80 608q0 121 61.5 212t160 136t218.5 45q125 0 220 -52.5t151 -143.5q92 -152 92 -391q0 -185 -61 -333t-180 -236.5t-277 -88.5q-71 0 -126.5 8t-99.5 26t-65.5 29.5t-58.5 35.5v188h65v-154q124 -67 285 -67q169 0 273.5 101.5t152.5 273.5q27 99 27 194q0 43 -7 101 q-36 -120 -152.5 -193.5t-250.5 -73.5q-84 0 -161 26.5t-136.5 74t-95 121t-35.5 161.5zM147 610q0 -62 20.5 -116.5t61.5 -99.5t110 -71t159 -26q86 0 159 28.5t118.5 74t71 100.5t25.5 110q0 134 -94 230t-264 96q-173 0 -270 -95t-97 -231z" />
<glyph horiz-adv-x="1683" d="M25 573l79 80h834l-80 -80h-366q33 -235 196 -381.5t418 -146.5q82 0 163.5 15t147.5 39.5t107 43.5t75 39v-86q-225 -121 -505 -121q-124 0 -229.5 32.5t-181 88.5t-131.5 133t-88 163t-44 181h-395zM184 733l80 80h158q29 174 129 305.5t244.5 199.5t312.5 68 q87 0 165.5 -10.5t143 -31t91 -30.5t67.5 -28v-250h-66v199q-181 84 -403 84q-230 0 -399.5 -138t-210.5 -368h606l-80 -80h-838z" />
<glyph horiz-adv-x="1193" d="M84 0v70h190v499h-137v74h137v125q0 214 98.5 324t317.5 110q116 0 285 -51v-250h-70v195q-115 34 -221 34q-90 0 -154.5 -22.5t-100.5 -56.5t-56 -88.5t-25.5 -102.5t-5.5 -115v-102h391v-74h-391v-499h723v-70h-981z" />
<glyph horiz-adv-x="980" d="M84 496q0 140 55 257t160 192t242 87v205h73v-201q130 -5 265 -67v-250h-66v205q-105 45 -233 45q-88 0 -161.5 -29.5t-122 -77t-82.5 -109.5t-49 -125t-15 -126q0 -129 44 -231.5t138.5 -166t226.5 -63.5q179 0 342 117v-78q-134 -90 -287 -103v-210h-73v208 q-219 6 -338 147t-119 374z" />
<glyph horiz-adv-x="438" d="M-281 -389q95 -55 218 -55q184 0 219 135q14 55 14 211v1044h-174v64h174v135q0 130 12 174q25 93 104.5 146t205.5 53q108 0 198 -48v-249h-69v206q-71 25 -150 25q-180 0 -219 -137q-14 -53 -14 -209v-96h313v-64h-313v-1036q0 -174 -13 -221q-25 -93 -104 -146 t-205 -53q-109 0 -197 45v76z" />
<glyph horiz-adv-x="876" d="M72 76v84q63 -47 155 -78t199 -31q61 0 112.5 12.5t95 39.5t68.5 74.5t25 111.5q0 79 -55 126t-191 97l-82 31q-47 17 -71 26.5t-62.5 27t-58 31.5t-45 36.5t-37 46t-20.5 55.5t-9 70q0 109 88.5 182.5t223.5 81.5v190h81v-190q137 -7 250 -60v-77q-110 65 -295 65 q-272 0 -272 -190q0 -21 4 -39.5t9 -32.5t16 -28t20 -23.5t26 -20.5t28.5 -17.5t33.5 -15.5t34.5 -14t38 -14.5t38.5 -14.5l100 -38q66 -25 111 -48.5t88 -57.5t64.5 -80.5t21.5 -104.5q0 -72 -28 -129t-75.5 -92t-100.5 -55t-112 -27v-217h-81v213q-195 5 -336 94z" />
<glyph horiz-adv-x="1030" d="M0 1014v69h145q3 -5 97 -148t186.5 -283t91.5 -138q-2 -2 89.5 138t184.5 283.5t95 147.5h88l-326 -501h279v-82h-334l-41 -66v-135h375v-82h-375v-217h-78v217h-387v82h387v133l-43 68h-344v82h289l-281 432h-98z" />
<glyph horiz-adv-x="399" d="M0 946v66h242v-1012h-68v946h-174zM139 1303q0 29 18.5 48t49.5 19q28 0 46.5 -20t18.5 -47q0 -29 -19 -47.5t-46 -18.5q-31 0 -49.5 18.5t-18.5 47.5z" />
<glyph d="M0 1296v66h250v-1362h-74v1296h-176z" />
<glyph horiz-adv-x="684" d="M78 461v65h526v-65h-526z" />
<glyph horiz-adv-x="1114" d="M70 526v66h977v-66h-977z" />
<glyph horiz-adv-x="854" d="M70 526v66h716v-66h-716z" />
<glyph horiz-adv-x="638" d="M70 541q0 240 69 427.5t219 399.5h52q-69 -125 -109.5 -208t-80.5 -188t-57.5 -211t-17.5 -226q0 -115 18 -218t59 -208t79.5 -182.5t106.5 -200.5h-52q-74 111 -121 195.5t-87.5 184.5t-59 206t-18.5 229z" />
<glyph horiz-adv-x="532" d="M70 -266v1618h344v-86h-275v-1448h275v-84h-344z" />
<glyph horiz-adv-x="673" d="M47 545q41 29 67.5 51t45 48t27.5 43.5t14 53.5t5.5 60t0.5 80q0 237 91 350t302 123v-86q-82 0 -139.5 -18t-100.5 -61.5t-63.5 -119.5t-20.5 -188q0 -150 -19 -208.5t-101 -121.5q37 -28 59 -53t35.5 -48.5t19.5 -62.5t7.5 -74.5t1.5 -105.5q0 -207 80.5 -298 t240.5 -91v-84q-115 13 -192 48t-121.5 95.5t-63 139.5t-18.5 190q0 42 -0.5 60.5t-1.5 49t-4 44.5t-8 36t-13.5 33.5t-19.5 28t-27.5 29t-36.5 27t-47 30.5z" />
<glyph horiz-adv-x="638" d="M227 1368h54q150 -212 219 -399.5t69 -427.5q0 -123 -18.5 -229t-59 -206t-87.5 -184.5t-121 -195.5h-52q68 127 105 201.5t78.5 181t59.5 209.5t18 217q0 120 -17.5 226t-57.5 211t-80.5 188t-109.5 208z" />
<glyph horiz-adv-x="528" d="M115 -182h272v1448h-272v86h344v-1618h-344v84z" />
<glyph horiz-adv-x="671" d="M74 -182q160 0 240.5 91t80.5 298q0 61 0.5 90t4.5 67t11 57t21 44t33.5 43.5t50.5 42.5q-35 27 -57 51.5t-35.5 48t-19.5 60.5t-7.5 71.5t-1.5 98.5q0 112 -20 188t-62.5 119.5t-99.5 61.5t-139 18v86q210 -10 301.5 -123.5t91.5 -349.5q0 -56 0.5 -80t5.5 -60t14 -53.5 t27.5 -43.5t45 -48t67.5 -51q-31 -18 -53 -33t-39.5 -33t-28.5 -30.5t-19 -35.5t-11.5 -37.5t-5.5 -47.5t-2.5 -54t-0.5 -67q0 -112 -18 -190.5t-62.5 -139t-121 -95.5t-191.5 -48v84z" />
<glyph horiz-adv-x="1060" d="M0 1294v68h250v-647l647 647h107l-656 -647l713 -715h-117l-694 702v-702h-70v1294h-180z" />
<glyph horiz-adv-x="1990" d="M74 100v90q193 -143 438 -143q77 0 142.5 18t116.5 55t79.5 97.5t28.5 140.5q0 105 -69 169.5t-230 129.5l-101 39q-44 17 -68 27t-60 26t-56 28t-47.5 30.5t-42 36t-31.5 41t-25.5 49.5t-14 58t-5.5 69q0 147 109.5 236t291.5 89q190 0 367 -86v-249h-66v200 q-136 66 -294 66q-151 0 -242.5 -63.5t-91.5 -192.5q0 -38 9 -70.5t22 -57t38 -47t46 -37t58 -31.5t61.5 -26.5t68.5 -25.5l123 -47q78 -30 133 -60.5t101 -73t68.5 -99.5t22.5 -130q0 -82 -28 -148.5t-72.5 -108.5t-105 -70.5t-122 -40t-126.5 -11.5q-234 0 -426 123z M1036 100v90q193 -143 439 -143q105 0 185 31t130.5 103t50.5 177t-69 169.5t-230 129.5l-100 39q-44 17 -68 27t-60 26t-56 28t-47.5 30.5t-42 36t-31.5 41t-25.5 49.5t-14 58t-5.5 69q0 147 109.5 236t291.5 89q190 0 367 -86v-249h-66v200q-136 66 -295 66 q-151 0 -242.5 -63.5t-91.5 -192.5q0 -38 9 -70.5t22 -57t38 -47t46 -37t58 -31.5t61.5 -26.5t68.5 -25.5l123 -47q78 -30 133 -60.5t101 -73t69 -99.5t23 -130q0 -82 -28 -148.5t-73 -108.5t-105.5 -70.5t-122 -40t-126.5 -11.5q-234 0 -426 123z" />
<glyph horiz-adv-x="1445" d="M170 350l23 72h225l119 375h-222l23 69h221l103 320h73l-102 -320h332l102 320h74l-103 -320h238l-23 -69h-237l-119 -375h233l-22 -72h-236l-116 -373h-74l119 373h-334l-117 -373h-74l119 373h-225zM492 422h329l123 375h-334z" />
<glyph horiz-adv-x="1478" d="M51 838q0 173 85 286t216 113q145 0 224 -110.5t79 -288.5q0 -174 -80.5 -285t-224.5 -111q-142 0 -220.5 110.5t-78.5 285.5zM104 838q0 -60 14 -118.5t42 -110t78.5 -83.5t115.5 -32q53 0 96 21.5t71 56t46.5 80t26.5 92t8 94.5q0 64 -13 122.5t-40.5 110t-77.5 82.5 t-117 31q-51 0 -94 -21t-71 -55.5t-48 -80t-28.5 -93.5t-8.5 -96zM221 -61l998 1355h61l-995 -1355h-64zM838 383q0 173 85 286t216 113q145 0 224 -110.5t79 -288.5q0 -173 -81 -284t-224 -111q-142 0 -220.5 110.5t-78.5 284.5zM891 383q0 -60 14 -118.5t42 -110 t78.5 -83.5t115.5 -32q53 0 96 21.5t71 56t46.5 80t26.5 92t8 94.5q0 50 -7.5 97.5t-26 94t-46.5 80.5t-71 55t-97 21q-64 0 -114 -32t-78.5 -84t-43 -111.5t-14.5 -120.5z" />
<glyph horiz-adv-x="2170" d="M51 831q0 171 84 283.5t215 112.5q143 0 222 -110t79 -286q0 -173 -80.5 -283t-222.5 -110t-219.5 109.5t-77.5 283.5zM104 831q0 -60 13.5 -118t41.5 -109.5t78 -83t115 -31.5t114.5 31.5t77 83t41 109t13.5 118.5q0 63 -13 121t-40.5 110t-77 83t-115.5 31 q-64 0 -113.5 -31.5t-78 -83.5t-42.5 -110.5t-14 -119.5zM211 -61l991 1345h62l-990 -1345h-63zM827 381q0 171 84 283t215 112q144 0 222.5 -109.5t78.5 -285.5q0 -173 -80.5 -283t-222.5 -110t-219.5 109.5t-77.5 283.5zM881 381q0 -61 13.5 -118.5t41 -109t77.5 -83 t115 -31.5t114.5 31.5t77 83t41 109t13.5 118.5q0 63 -13 121t-40.5 109.5t-77 82.5t-115.5 31q-51 0 -93.5 -21t-70.5 -55.5t-47 -80t-27.5 -92.5t-8.5 -95zM1513 381q0 171 84 283t215 112q144 0 223 -109.5t79 -285.5q0 -173 -81 -283t-223 -110t-219.5 109.5 t-77.5 283.5zM1567 381q0 -60 13.5 -118t41.5 -109.5t78 -83t115 -31.5t114.5 31.5t77 83t40.5 109t13 118.5q0 63 -13 121t-40 109.5t-76.5 82.5t-115.5 31q-64 0 -113.5 -31.5t-78 -83t-42.5 -110t-14 -119.5z" />
<glyph horiz-adv-x="571" d="M225 555q0 27 19.5 46.5t46.5 19.5q26 0 45.5 -20t19.5 -46t-19.5 -46t-45.5 -20q-27 0 -46.5 19.5t-19.5 46.5z" />
<glyph horiz-adv-x="544" d="M45 492l305 307h96l-272 -307l264 -275h-102z" />
<glyph horiz-adv-x="544" d="M94 799h99l305 -307l-293 -275h-101l263 275z" />
<glyph horiz-adv-x="825" d="M45 492l305 309h96l-272 -309l264 -277h-98zM326 492l305 309h96l-272 -309l264 -277h-101z" />
<glyph horiz-adv-x="825" d="M102 801h97l305 -309l-295 -277h-98l262 277zM381 801h98l305 -309l-295 -277h-98l262 277z" />
<glyph horiz-adv-x="202" d="M20 1477q52 83 89.5 176.5t44.5 171.5l96 -6q-50 -212 -172 -367z" />
<glyph horiz-adv-x="1351" d="M100 623q0 177 74 321t212 227.5t314 83.5q256 0 403.5 -150t147.5 -400q0 -42 -4 -62h-1052q-2 -271 131 -429.5t370 -158.5q147 0 247 36t181 97v177h70v-230q-196 -166 -500 -166q-116 0 -213.5 34.5t-167 95t-118 143t-72 179t-23.5 202.5zM201 729h954 q0 118 -51.5 215.5t-157 159t-246.5 61.5q-214 0 -346 -122t-153 -314z" />
<glyph horiz-adv-x="1650" d="M84 496q0 111 36 209.5t100.5 172t160 116t207.5 42.5q38 0 84 -4q-94 84 -94 219q0 70 30.5 124.5t81 85.5t108.5 47t120 16q85 0 157 -38t109 -116q26 -49 26 -192v-168h340v-64h-340v-565q0 -125 11 -186q13 -74 56 -114t136 -40q91 0 193 51v-69q-32 -19 -87.5 -33.5 t-95.5 -14.5q-240 0 -270 205q-8 49 -8 158v608h-158v64h158v178q0 112 -31 166q-54 102 -201 102q-133 0 -199.5 -56t-66.5 -155q0 -78 42 -147.5t132 -102.5l58 -22v-219h-70v178q-95 39 -229 39q-88 0 -161.5 -29.5t-122 -77.5t-82.5 -110t-49 -125.5t-15 -126.5 q0 -129 44 -231.5t138.5 -166t226.5 -63.5q68 0 145.5 23.5t192.5 82.5v-75q-167 -97 -342 -97q-225 0 -348 141.5t-123 379.5z" />
<glyph horiz-adv-x="2027" d="M102 61v250h68v-200q119 -64 276 -64q139 0 208 51.5t69 159.5q0 71 -51.5 113.5t-179.5 91.5l-130 49q-118 43 -171.5 101t-53.5 157q0 118 85 189t239 71q29 0 65 -4q-92 92 -92 217q0 69 29.5 124.5t78 88.5t106.5 50.5t118 17.5q252 0 317 -199q17 -55 17 -158v-352 q60 103 166 157t215 54q211 0 332.5 -129.5t121.5 -374.5q0 -114 -32 -206.5t-85.5 -153t-126 -101.5t-150.5 -59t-163 -18q-149 0 -280 43v-529h-66v1667q0 88 -20 142q-56 149 -256 149q-67 0 -117.5 -18.5t-78.5 -49.5t-42 -65.5t-14 -71.5q0 -66 32 -135t101 -106 q81 -23 121 -41v-82q-135 76 -301 76q-254 0 -254 -191q0 -62 41 -107.5t141 -82.5l115 -43q63 -24 101 -40.5t79 -40.5t62 -50t35 -63t14 -83q0 -75 -29 -131t-79 -88t-110 -47.5t-129 -15.5q-187 0 -342 81zM1098 104q65 -26 130 -39.5t165 -13.5q96 0 179.5 28.5 t150.5 85t106 150t39 213.5q0 218 -105 325.5t-278 107.5q-100 0 -189 -50t-143 -131q-25 -37 -40 -93t-15 -107v-476z" />
<glyph horiz-adv-x="1054" d="M82 606q0 177 57.5 321t160.5 226t232 82q108 0 193 -47.5t138.5 -133t81.5 -199t28 -249.5q0 -180 -50.5 -321.5t-154.5 -225.5t-246 -84q-106 0 -190.5 48.5t-138.5 134t-82.5 199.5t-28.5 249zM158 606q0 -80 11.5 -155.5t39 -150t68.5 -129.5t105.5 -89.5 t145.5 -34.5q100 0 174.5 51t115.5 135.5t60 178t19 194.5q0 83 -11 159t-37.5 150t-67.5 128t-105.5 87t-145.5 33q-79 0 -143 -33.5t-106 -88.5t-70.5 -128.5t-40.5 -150t-12 -156.5z" />
<glyph horiz-adv-x="782" d="M80 0v72h282v970q-16 -29 -82.5 -73t-125.5 -73l-58 -30v78q8 5 23 14t57.5 38t81.5 60t87.5 76.5t84.5 90.5v-1151h275v-72h-625zM430 1223v4h2q-2 -2 -2 -4z" />
<glyph horiz-adv-x="1030" d="M100 0v47q96 89 187.5 173t146 133.5t104.5 95.5t76.5 70.5t49.5 46t34.5 33.5t21 22t19.5 22q115 138 115 246q0 63 -23 113t-58 80t-80 50t-85 27.5t-78 7.5q-146 0 -272 -61v-139h-61v168q50 34 139.5 65t185.5 31q58 0 113 -11.5t108 -37.5t92 -64.5t63 -98 t24 -132.5q0 -82 -36.5 -159t-92.5 -138q-48 -50 -566 -518q121 6 691 6v-78h-818z" />
<glyph horiz-adv-x="888" d="M80 55v62q193 -74 362 -74q127 0 214 77t87 220q0 93 -54 158t-133 90.5t-167 17.5v74q143 -1 231.5 71t88.5 173q0 61 -25 109t-66.5 76.5t-91.5 43t-104 14.5q-109 0 -254 -49v-131h-64v168q171 76 320 76q63 0 121.5 -15.5t112 -49.5t86 -98t32.5 -150 q0 -104 -63 -177t-160 -92l8 -4q112 -24 179 -107.5t67 -207.5q0 -79 -25 -142t-63.5 -101t-88.5 -63t-95 -34.5t-89 -9.5q-123 0 -206.5 20.5t-159.5 54.5z" />
<glyph horiz-adv-x="1069" d="M125 301v31l620 889h86q-541 -776 -595 -848q83 6 518 6v391l73 121v-512h162v-78h-162v-301h-73v301h-629z" />
<glyph horiz-adv-x="944" d="M74 49v168h65v-119q147 -55 285 -55q38 0 82 9t97 34t95 63t70.5 103.5t28.5 148.5q0 41 -9 80.5t-32 81.5t-58 73.5t-92.5 52t-130.5 20.5q-177 0 -369 -129l-16 14l16 627h650l-37 -72h-541q0 -13 -1 -34t-2.5 -79t-3.5 -109t-3.5 -103t-2.5 -83t-1 -30q63 35 150 53 t151 18q191 0 293 -106.5t102 -267.5q0 -202 -126.5 -315t-321.5 -113q-193 0 -338 69z" />
<glyph horiz-adv-x="1001" d="M51 567q0 132 34.5 250t98.5 209.5t164 145t223 53.5q150 0 299 -68v-168h-65v125q-119 45 -236 45q-100 0 -178.5 -37t-125.5 -92t-79.5 -132t-46.5 -143t-20 -139q0 -77 4 -116q33 112 152 184t253 72q113 0 209 -44t157.5 -133.5t61.5 -207.5q0 -179 -128 -285 t-320 -106q-124 0 -219.5 56.5t-145.5 145.5q-92 158 -92 385zM162 369q0 -97 56 -174t135 -114.5t161 -37.5q177 0 275 93t98 233q0 139 -90.5 226t-259.5 87q-83 0 -155.5 -28t-119.5 -73.5t-73.5 -100.5t-26.5 -111z" />
<glyph horiz-adv-x="927" d="M20 1053v168h844v-17q-130 -149 -231 -369t-152.5 -437.5t-52.5 -397.5h-72q0 271 107 594.5t276 560.5q-117 -6 -653 -6v-96h-66z" />
<glyph horiz-adv-x="999" d="M98 334q0 99 56.5 178t160.5 125q-91 46 -140.5 115t-49.5 153q0 139 102.5 232.5t272.5 93.5t275.5 -91.5t105.5 -226.5q0 -167 -187 -276q102 -44 156.5 -121t54.5 -176q0 -154 -109 -257t-292 -103q-182 0 -294 103t-112 251zM168 330q0 -121 93.5 -204t242.5 -83 q151 0 241.5 82.5t90.5 212.5q0 114 -98 190t-238 76q-137 0 -234.5 -80t-97.5 -194zM197 915q0 -110 84.5 -179.5t222.5 -69.5q139 0 222 71t83 185q0 109 -85 175t-224 66q-137 0 -220 -68.5t-83 -179.5z" />
<glyph horiz-adv-x="1067" d="M78 831q0 121 61.5 212t160 136.5t218.5 45.5q126 0 220.5 -52.5t150.5 -144.5q94 -155 94 -391q0 -184 -61.5 -332.5t-181 -236.5t-277.5 -88q-70 0 -125 8t-99.5 25.5t-66 29t-59.5 35.5v168h65v-133q126 -68 287 -68q168 0 273 101.5t153 273.5q37 132 18 291 q-23 -80 -87 -141t-146.5 -91t-169.5 -30q-113 0 -209 44t-157.5 133t-61.5 205zM145 836q0 -62 20.5 -117t61.5 -100t111 -71t160 -26q86 0 159 28.5t118.5 74.5t71 101t25.5 110q0 63 -23 121t-66.5 104t-113.5 73t-157 27q-172 0 -269.5 -95t-97.5 -230z" />
<glyph horiz-adv-x="995" d="M0 1014v69h850v-249h-70v180h-530v-408h557v-74h-557v-460h610v-72h-682v1014h-178z" />
<glyph horiz-adv-x="1001" d="M16 0l424 1014h-153v69h241l457 -1083h-82l-184 444h-440l-185 -444h-78zM311 516h371l-85 218l-99 253z" />
<glyph horiz-adv-x="905" d="M0 1014v69h836v-249h-70v180h-514v-422h512v-72h-512v-520h-74v1014h-178z" />
<glyph d="M0 1014v69h250v-1083h-74v1014h-176z" />
<glyph horiz-adv-x="772" d="M68 4v250h65v-197q57 -14 133 -14q81 0 141 38.5t85 104.5q32 82 32 211v621h-444v65h514v-675q0 -148 -35 -232q-35 -88 -115.5 -143.5t-185.5 -55.5q-126 0 -190 27z" />
<glyph horiz-adv-x="892" d="M0 1014v69h250v-1017h622v-66h-692v1014h-180z" />
<glyph horiz-adv-x="1013" d="M0 1014v69l471 4q120 0 187.5 -20t113.5 -61q44 -42 66 -95.5t22 -105.5q0 -29 -9 -60.5t-28.5 -66t-58 -63t-90.5 -42.5q250 -42 250 -268q0 -79 -38 -146.5t-93 -99.5q-102 -59 -289 -59h-328v1014h-176zM248 72h227q188 0 270 53q48 31 74.5 73t26.5 109 q0 56 -23 97.5t-58 65t-87.5 37.5t-100 18.5t-106.5 4.5h-223v-458zM248 608h231q121 0 189 33q56 27 84 65.5t28 104.5q0 205 -309 205l-223 -4v-404z" />
<glyph horiz-adv-x="1101" d="M74 541q0 129 45 236t121.5 178t178 110t214.5 39q214 0 379 -84v-250h-68v205q-143 61 -317 61q-210 0 -347 -133.5t-137 -359.5q0 -219 128.5 -356.5t355.5 -137.5q88 0 178.5 23.5t139 46t85.5 45.5v-84q-175 -100 -409 -100q-112 0 -204.5 32.5t-155 86.5t-105.5 127 t-62.5 152t-19.5 163z" />
<glyph horiz-adv-x="1228" d="M0 1018v65l535 4q104 0 192.5 -17.5t166 -57.5t131.5 -101t85 -152t31 -206q0 -163 -96 -312.5t-257 -207.5q-87 -33 -284 -33h-328v1018h-176zM248 68h258q186 0 264 34q137 58 216 176t79 271q0 243 -139 359t-387 116q-43 0 -138.5 -3t-152.5 -3v-950z" />
<glyph horiz-adv-x="1241" d="M0 1014v69h248v-501h743v501h72v-1083h-72v518h-743v-518h-72v1014h-176z" />
<glyph horiz-adv-x="714" d="M150 1524q185 83 342 233l71 -69q-168 -144 -385 -218z" />
<glyph horiz-adv-x="688" d="M76 1688h71q3 -74 46.5 -112t152.5 -38q188 0 195 150h71q-6 -232 -270 -232q-139 0 -201 59t-65 173z" />
<glyph horiz-adv-x="739" d="M86 1751l53 16q125 -59 234 -211q103 147 227 211l53 -16q-88 -71 -145 -137t-100 -158h-76q-45 92 -101.5 158t-144.5 137z" />
<glyph horiz-adv-x="716" d="M190 -319q25 -19 65.5 -30t74.5 -11q119 0 119 98q0 37 -30.5 59.5t-92.5 22.5q-37 0 -95 -15l54 224h65l-37 -146q16 4 45 4q70 0 118 -38t48 -107q0 -75 -46.5 -122.5t-149.5 -47.5q-85 0 -138 35v74z" />
<glyph horiz-adv-x="739" d="M86 1473q89 72 145.5 137t100.5 157h76q43 -92 99 -156.5t146 -137.5l-53 -17q-120 58 -227 209q-110 -153 -234 -209z" />
<glyph horiz-adv-x="403" d="M-4 1520q0 28 18.5 47.5t48.5 19.5q28 0 47 -20t19 -47q0 -29 -19.5 -47.5t-46.5 -18.5q-29 0 -48 18.5t-19 47.5zM274 1520q0 28 19 47.5t49 19.5q28 0 47 -20t19 -47q0 -29 -19.5 -47.5t-46.5 -18.5q-29 0 -48.5 18.5t-19.5 47.5z" />
<glyph horiz-adv-x="126" d="M-4 1520q0 27 18.5 47t44.5 20t47 -20.5t21 -46.5t-21 -46t-47 -20t-44.5 19.5t-18.5 46.5z" />
<glyph horiz-adv-x="714" d="M150 1671l71 70q165 -157 342 -234l-26 -55q-231 82 -387 219z" />
<glyph horiz-adv-x="956" d="M147 1509q185 80 345 230l69 -72q-166 -141 -389 -215zM395 1509q182 79 346 230l70 -72q-163 -139 -389 -215z" />
<glyph horiz-adv-x="747" d="M127 1454v80h494v-80h-494z" />
<glyph horiz-adv-x="792" d="M215 1634q0 75 52.5 125.5t127.5 50.5q77 0 130 -50.5t53 -125.5q0 -76 -53 -127t-130 -51q-76 0 -128 51t-52 127zM281 1634q0 -50 32.5 -83t81.5 -33q50 0 84.5 33.5t34.5 82.5q0 48 -35 82.5t-84 34.5t-81.5 -34.5t-32.5 -82.5z" />
<glyph horiz-adv-x="864" d="M143 1442q26 92 66 142t106 50q57 0 140 -49q80 -49 120 -49q25 0 41.5 27t40.5 92l66 -10q-34 -114 -65.5 -154.5t-79.5 -40.5q-56 0 -144 51q-38 21 -54.5 29t-36 15t-34.5 7q-32 0 -56.5 -30t-45.5 -90z" />
<glyph horiz-adv-x="1001" d="M16 0l424 1014h-153v69h241l457 -1083h-82l-184 444h-440l-185 -444h-78zM311 516h371l-85 218l-99 253zM346 1200q139 133 225 318l86 -33q-101 -185 -266 -320z" />
<glyph horiz-adv-x="1001" d="M16 0l424 1014h-153v69h241l457 -1083h-82l-184 444h-440l-185 -444h-78zM268 1491l88 29q85 -189 224 -322l-48 -33q-163 133 -264 326zM311 516h371l-85 218l-99 253z" />
<glyph horiz-adv-x="1001" d="M16 0l424 1014h-153v69h241l457 -1083h-82l-184 444h-440l-185 -444h-78zM211 1188q72 75 124 145.5t105 167.5h72q78 -165 229 -313l-57 -19q-132 119 -215 238q-122 -169 -207 -238zM311 516h371l-85 218l-99 253z" />
<glyph horiz-adv-x="1001" d="M16 0l424 1014h-153v69h241l457 -1083h-82l-184 444h-440l-185 -444h-78zM233 1280q0 26 18.5 44.5t45.5 18.5t44 -18.5t17 -44.5q0 -27 -18 -44t-43 -17q-28 0 -46 17t-18 44zM311 516h371l-85 218l-99 253zM580 1280q0 27 18 45t47 18q26 0 44 -19t18 -44 q0 -27 -18 -44t-44 -17q-28 0 -46.5 17t-18.5 44z" />
<glyph horiz-adv-x="1001" d="M16 0l424 1014h-153v69h241l457 -1083h-82l-184 444h-440l-185 -444h-78zM190 1243q24 88 61.5 135t102.5 47q51 0 129 -47q83 -47 115 -47q24 0 39 25.5t37 89.5l61 -10q-31 -107 -61 -146t-74 -39q-55 0 -135 47q-6 3 -17.5 9.5t-17 9.5t-14.5 8t-14 7t-12 5.5 t-11.5 4.5t-10.5 3t-10.5 2.5t-9.5 0.5q-31 0 -53.5 -29t-42.5 -86zM311 516h371l-85 218l-99 253z" />
<glyph horiz-adv-x="1001" d="M16 0l424 1014h-153v69h241l457 -1083h-82l-184 444h-440l-185 -444h-78zM307 1327q0 72 50 120t122 48q71 0 120.5 -48.5t49.5 -119.5t-49.5 -119.5t-120.5 -48.5q-72 0 -122 48t-50 120zM311 516h371l-85 218l-99 253zM369 1327q0 -46 32 -78t78 -32q45 0 78 32.5 t33 77.5q0 44 -33.5 77.5t-77.5 33.5q-45 0 -77.5 -33t-32.5 -78z" />
<glyph horiz-adv-x="1165" d="M88 541q0 170 78 300t203.5 195.5t275.5 65.5q212 0 377 -84v-250h-70v205q-134 61 -311 61q-209 0 -345 -133t-136 -358q0 -217 128 -353.5t355 -136.5q168 0 324 72v303h-301v74h378v-422q-185 -100 -407 -100q-112 0 -205 32.5t-156 86.5t-106 127t-62.5 152 t-19.5 163z" />
<glyph horiz-adv-x="1198" d="M0 1014v69h188q-8 12 192 -220t404 -471l205 -238v929h72v-1083h-33q8 -12 -196.5 225.5t-413.5 480.5l-209 244v-950h-72v1014h-137z" />
<glyph horiz-adv-x="956" d="M8 834v249h940v-249h-69v184h-367v-1018h-70v1018h-364v-184h-70z" />
<glyph horiz-adv-x="935" d="M16 35q-7 -13 189.5 234t396.5 500l201 253q-83 -4 -672 -4v-184h-70v249h850l7 -41q7 14 -186.5 -230t-391.5 -495l-197 -251q153 4 707 4v180h70v-250h-893z" />
<glyph horiz-adv-x="874" d="M0 1014v69h250v-510l463 510h102l-475 -516l524 -567h-100l-514 559v-559h-72v1014h-178z" />
<glyph horiz-adv-x="1374" d="M0 1014v69h248l440 -559l436 559h70v-1083h-72v967q-79 -122 -432 -572q-139 182 -242 316t-150.5 195.5t-47.5 60.5v-967h-70v1014h-180z" />
<glyph horiz-adv-x="1273" d="M88 543q0 170 77.5 299.5t202.5 194.5t275 65q111 0 208.5 -37.5t172.5 -107t118.5 -177t43.5 -239.5q0 -107 -36.5 -206.5t-104.5 -180.5t-176 -130t-240 -49q-104 0 -193 31t-152.5 84.5t-108 126t-66 155t-21.5 171.5zM162 543q0 -224 130.5 -361t342.5 -137 q209 0 342 136.5t133 361.5t-135 357t-340 132q-210 0 -341.5 -132t-131.5 -357z" />
<glyph horiz-adv-x="1273" d="M88 543q0 170 77.5 300t202.5 195.5t275 65.5q111 0 209 -37.5t172.5 -107.5t118 -178t43.5 -240q0 -106 -36.5 -206t-104.5 -180.5t-175.5 -129.5t-238.5 -50l473 -100l-17 -74l-473 101l17 73h-2q-104 0 -193 31t-152.5 84.5t-108 126t-66 155t-21.5 171.5zM162 543 q0 -224 130.5 -361t342.5 -137q209 0 342 136.5t133 361.5t-135.5 358t-339.5 133q-210 0 -341.5 -133t-131.5 -358z" />
<glyph horiz-adv-x="958" d="M0 1014v69l471 7q186 0 277 -62q116 -83 116 -237q0 -92 -48 -167t-128 -110q-77 -35 -203 -35h-237v-479h-72v1014h-176zM248 551h244q131 0 200 47q94 67 94 193q0 53 -15.5 93t-42 65.5t-67 41t-85.5 21.5t-103 6l-225 -6v-461z" />
<glyph horiz-adv-x="1249" d="M0 1014v69h248v-600q0 -77 8 -129q24 -137 119.5 -222t249.5 -85t249 85t119 222q8 52 8 129v600h72v-594q0 -104 -14 -170q-13 -66 -48.5 -126.5t-88.5 -109t-130 -77.5t-165 -29q-174 0 -290 101t-144 244q-17 76 -17 170v522h-176z" />
<glyph horiz-adv-x="978" d="M-20 1014v69h106l79 -180q58 -137 205 -482l119 -280l402 942h78l-459 -1083h-41l-430 1014h-59z" />
<glyph horiz-adv-x="1101" d="M74 541q0 129 45 236t121.5 178t178 110t214.5 39q214 0 379 -84v-250h-68v205q-143 61 -317 61q-210 0 -347 -133.5t-137 -359.5q0 -219 128.5 -356.5t355.5 -137.5q88 0 178.5 23.5t139 46t85.5 45.5v-84q-164 -95 -385 -100l-29 -113q16 4 43 4q66 0 111 -35.5 t45 -99.5q0 -72 -43.5 -116t-140.5 -44q-78 0 -129 31v69q45 -34 131 -34q56 0 84 21t28 69q0 34 -28.5 54.5t-87.5 20.5q-45 0 -88 -12l43 187q-104 5 -190 39t-144.5 88.5t-98.5 125.5t-58.5 148t-18.5 158z" />
<glyph horiz-adv-x="1030" d="M0 1014v67l469 9q185 0 276 -62q119 -81 119 -231q0 -89 -48.5 -155.5t-133.5 -104.5l-59 -19q35 -16 59 -37q34 -27 96 -116l250 -365h-90l-199 285q-79 113 -110 144q-12 12 -23 20q-67 49 -149 49h-209v-498h-72v1014h-176zM248 571h244q131 0 200 47q94 69 94 185 q0 65 -22.5 109.5t-67 67t-97 31.5t-126.5 9l-225 -8v-441z" />
<glyph horiz-adv-x="948" d="M-20 1014v69h120l162 -240q44 -66 130 -194l87 -131l87 132q285 434 286 433h86l-428 -647v-436h-72v434l-383 580h-75z" />
<glyph horiz-adv-x="997" d="M10 0l447 571l-348 443h-89v69h130q-2 4 33.5 -41t88.5 -112.5l106 -135t90 -115.5l38 -48q23 29 60.5 77t116 149t129.5 166t48 60h94l-407 -520l440 -563h-94q2 -4 -37.5 46.5t-97.5 125.5t-116.5 150t-99.5 128l-42 54q-26 -33 -67.5 -86.5t-129.5 -166t-145 -185 t-54 -66.5h-94z" />
<glyph horiz-adv-x="876" d="M72 76v84q63 -47 155 -78t199 -31q61 0 112.5 12.5t95 39.5t68.5 74.5t25 111.5q0 79 -55 126t-191 97l-82 31q-47 17 -71 26.5t-62.5 27t-58 31.5t-45 36.5t-37 46t-20.5 55.5t-9 70q0 124 96.5 195t247.5 71q173 0 299 -62v-249h-69v202q-93 35 -226 35 q-272 0 -272 -190q0 -21 4 -39.5t9 -32.5t16 -28t20 -23.5t26 -20.5t28.5 -17.5t33.5 -15.5t34.5 -14t38 -14.5t38.5 -14.5l100 -38q66 -25 111 -48.5t88 -57.5t64.5 -80.5t21.5 -104.5q0 -67 -24.5 -120.5t-63.5 -87.5t-91 -57t-103 -32.5t-103 -9.5q-195 0 -348 94z" />
<glyph horiz-adv-x="1689" d="M-20 1014v69h106l25 -58q65 -160 309 -784l31 -81l47 120q314 804 317 803h49l35 -81q70 -172 299 -753l37 -93l140 354q225 572 229 573h75l-426 -1083h-36l-196 491q-43 108 -117 297l-62 156l-43 -110q-330 -835 -334 -834h-31l-397 1014h-57z" />
<glyph horiz-adv-x="995" d="M0 1014v69h850v-249h-70v180h-530v-408h557v-74h-557v-460h610v-72h-682v1014h-178zM391 1200q139 133 225 318l86 -33q-101 -185 -266 -320z" />
<glyph horiz-adv-x="995" d="M0 1014v69h850v-249h-70v180h-530v-408h557v-74h-557v-460h610v-72h-682v1014h-178zM346 1491l88 29q86 -191 223 -322l-47 -33q-163 133 -264 326z" />
<glyph horiz-adv-x="993" d="M0 1014v69h850v-249h-70v180h-530v-408h557v-74h-557v-460h610v-72h-682v1014h-178zM254 1188q72 75 124 145.5t105 167.5h72q78 -165 229 -313l-57 -19q-132 119 -215 238q-122 -169 -207 -238z" />
<glyph horiz-adv-x="995" d="M0 1014v69h850v-249h-70v180h-530v-408h557v-74h-557v-460h610v-72h-682v1014h-178zM299 1280q0 27 18 45t45 18t44.5 -18.5t17.5 -44.5q0 -27 -18 -44t-44 -17q-28 0 -45.5 16.5t-17.5 44.5zM645 1280q0 27 18.5 45t47.5 18q26 0 43.5 -19t17.5 -44q0 -27 -18 -44 t-43 -17q-28 0 -47 17t-19 44z" />
<glyph d="M-41 1200q139 133 225 318l86 -33q-101 -185 -266 -320zM0 1014v69h250v-1083h-74v1014h-176z" />
<glyph d="M-12 1491l88 29q86 -191 223 -322l-47 -33q-163 133 -264 326zM0 1014v69h250v-1083h-74v1014h-176z" />
<glyph d="M-102 1188q72 75 124 145.5t105 167.5h72q78 -165 229 -313l-57 -19q-132 119 -215 238q-122 -169 -207 -238zM0 1014v69h250v-1083h-74v1014h-176z" />
<glyph d="M-80 1280q0 26 18 44.5t46 18.5q27 0 44 -18.5t17 -44.5q0 -27 -18 -44t-43 -17q-28 0 -46 17t-18 44zM0 1014v69h250v-1083h-74v1014h-176zM266 1280q0 27 18.5 45t47.5 18q26 0 43.5 -19t17.5 -44q0 -27 -18 -44t-43 -17q-28 0 -47 17t-19 44z" />
<glyph horiz-adv-x="1198" d="M0 1014v69h188q-8 12 192 -220t404 -471l205 -238v929h72v-1083h-33q8 -12 -196.5 225.5t-413.5 480.5l-209 244v-950h-72v1014h-137zM334 1243q24 88 61.5 135t102.5 47q51 0 129 -47q83 -47 114 -47q24 0 39 25.5t37 89.5l62 -10q-31 -107 -61.5 -146t-74.5 -39 q-55 0 -135 47q-8 4 -22.5 12.5t-20.5 11.5l-17 8.5t-16.5 7.5t-13.5 5t-14 4t-12 1q-57 0 -97 -115z" />
<glyph horiz-adv-x="1273" d="M88 543q0 170 77.5 299.5t202.5 194.5t275 65q111 0 208.5 -37.5t172.5 -107t118.5 -177t43.5 -239.5q0 -107 -36.5 -206.5t-104.5 -180.5t-176 -130t-240 -49q-104 0 -193 31t-152.5 84.5t-108 126t-66 155t-21.5 171.5zM162 543q0 -224 130.5 -361t342.5 -137 q209 0 342 136.5t133 361.5t-135 357t-340 132q-210 0 -341.5 -132t-131.5 -357zM508 1200q139 133 225 318l86 -33q-101 -185 -266 -320z" />
<glyph horiz-adv-x="1273" d="M88 543q0 170 77.5 299.5t202.5 194.5t275 65q111 0 208.5 -37.5t172.5 -107t118.5 -177t43.5 -239.5q0 -107 -36.5 -206.5t-104.5 -180.5t-176 -130t-240 -49q-104 0 -193 31t-152.5 84.5t-108 126t-66 155t-21.5 171.5zM162 543q0 -224 130.5 -361t342.5 -137 q209 0 342 136.5t133 361.5t-135 357t-340 132q-210 0 -341.5 -132t-131.5 -357zM496 1491l88 29q86 -191 223 -322l-47 -33q-163 133 -264 326z" />
<glyph horiz-adv-x="1273" d="M88 543q0 170 77.5 299.5t202.5 194.5t275 65q111 0 208.5 -37.5t172.5 -107t118.5 -177t43.5 -239.5q0 -107 -36.5 -206.5t-104.5 -180.5t-176 -130t-240 -49q-104 0 -193 31t-152.5 84.5t-108 126t-66 155t-21.5 171.5zM162 543q0 -224 130.5 -361t342.5 -137 q209 0 342 136.5t133 361.5t-135 357t-340 132q-210 0 -341.5 -132t-131.5 -357zM377 1188q72 75 124 145.5t105 167.5h72q78 -165 229 -313l-57 -19q-132 119 -215 238q-122 -169 -207 -238z" />
<glyph horiz-adv-x="1273" d="M88 543q0 170 77.5 299.5t202.5 194.5t275 65q111 0 208.5 -37.5t172.5 -107t118.5 -177t43.5 -239.5q0 -107 -36.5 -206.5t-104.5 -180.5t-176 -130t-240 -49q-104 0 -193 31t-152.5 84.5t-108 126t-66 155t-21.5 171.5zM162 543q0 -224 130.5 -361t342.5 -137 q209 0 342 136.5t133 361.5t-135 357t-340 132q-210 0 -341.5 -132t-131.5 -357zM406 1280q0 27 18 45t45 18t44 -18.5t17 -44.5q0 -27 -18 -44t-43 -17q-28 0 -45.5 16.5t-17.5 44.5zM752 1280q0 27 18 45t47 18q26 0 44 -19t18 -44q0 -27 -18 -44t-44 -17q-28 0 -46.5 17 t-18.5 44z" />
<glyph horiz-adv-x="1273" d="M88 543q0 170 77.5 299.5t202.5 194.5t275 65q111 0 208.5 -37.5t172.5 -107t118.5 -177t43.5 -239.5q0 -107 -36.5 -206.5t-104.5 -180.5t-176 -130t-240 -49q-104 0 -193 31t-152.5 84.5t-108 126t-66 155t-21.5 171.5zM162 543q0 -224 130.5 -361t342.5 -137 q209 0 342 136.5t133 361.5t-135 357t-340 132q-210 0 -341.5 -132t-131.5 -357zM352 1243q24 88 61.5 135t102.5 47q51 0 129 -47q83 -47 115 -47q24 0 39 25.5t37 89.5l61 -10q-31 -107 -61 -146t-74 -39q-55 0 -135 47q-6 3 -17.5 9.5t-17 9.5t-14.5 8t-14 7t-12 5.5 t-11.5 4.5t-10.5 3t-10.5 2.5t-9.5 0.5q-31 0 -53.5 -29t-42.5 -86z" />
<glyph horiz-adv-x="1249" d="M0 1014v69h248v-600q0 -77 8 -129q24 -137 119.5 -222t249.5 -85t249 85t119 222q8 52 8 129v600h72v-594q0 -104 -14 -170q-13 -66 -48.5 -126.5t-88.5 -109t-130 -77.5t-165 -29q-174 0 -290 101t-144 244q-17 76 -17 170v522h-176zM471 1200q139 133 225 318l86 -33 q-101 -185 -266 -320z" />
<glyph horiz-adv-x="1249" d="M0 1014v69h248v-600q0 -77 8 -129q24 -137 119.5 -222t249.5 -85t249 85t119 222q8 52 8 129v600h72v-594q0 -104 -14 -170q-13 -66 -48.5 -126.5t-88.5 -109t-130 -77.5t-165 -29q-174 0 -290 101t-144 244q-17 76 -17 170v522h-176zM469 1491l88 29q86 -191 223 -322 l-47 -33q-163 133 -264 326z" />
<glyph horiz-adv-x="1249" d="M0 1014v69h248v-600q0 -77 8 -129q24 -137 119.5 -222t249.5 -85t249 85t119 222q8 52 8 129v600h72v-594q0 -104 -14 -170q-13 -66 -48.5 -126.5t-88.5 -109t-130 -77.5t-165 -29q-174 0 -290 101t-144 244q-17 76 -17 170v522h-176zM371 1188q72 75 124 145.5 t105 167.5h72q78 -165 229 -313l-57 -19q-132 119 -215 238q-122 -169 -207 -238z" />
<glyph horiz-adv-x="1249" d="M0 1014v69h248v-600q0 -77 8 -129q24 -137 119.5 -222t249.5 -85t249 85t119 222q8 52 8 129v600h72v-594q0 -104 -14 -170q-13 -66 -48.5 -126.5t-88.5 -109t-130 -77.5t-165 -29q-174 0 -290 101t-144 244q-17 76 -17 170v522h-176zM391 1280q0 26 18.5 44.5t45.5 18.5 t44 -18.5t17 -44.5q0 -27 -18 -44t-43 -17q-28 0 -46 17t-18 44zM737 1280q0 27 18.5 45t47.5 18q26 0 43.5 -19t17.5 -44q0 -27 -18 -44t-43 -17q-28 0 -47 17t-19 44z" />
</font>
</defs>
</svg>
