<?xml version="1.0" standalone="no"?>
<!DOCTYPE svg PUBLIC "-//W3C//DTD SVG 1.1//EN" "http://www.w3.org/Graphics/SVG/1.1/DTD/svg11.dtd" >
<svg xmlns="http://www.w3.org/2000/svg">
<metadata></metadata>
<defs>
<font id="geometria_lightlight" horiz-adv-x="1288" >
<font-face units-per-em="2048" ascent="1589" descent="-459" />
<missing-glyph horiz-adv-x="546" />
<glyph unicode="ij" horiz-adv-x="1009" d="M178 1323q0 34 24 58t58 24t58 -24t24 -58t-24 -58t-58 -24t-58 24t-24 58zM211 0v979h100v-979h-100zM377 -287q66 -39 141 -39q182 0 182 209v1096h101v-1112q0 -79 -21.5 -136.5t-60 -88.5t-83.5 -45.5t-99 -14.5q-99 0 -160 37v94zM668 1323q0 34 24 58t58 24 t57.5 -24t23.5 -58t-23.5 -58t-57.5 -24t-58 24t-24 58z" />
<glyph unicode="ff" horiz-adv-x="1368" d="M57 889v90h201v190q0 130 67.5 204.5t194.5 74.5q115 0 193 -41v-94q-80 43 -172 43q-89 0 -136 -54.5t-47 -154.5v-168h498v190q0 130 67.5 204.5t194.5 74.5q112 0 193 -41v-94q-80 43 -172 43q-90 0 -136.5 -54t-46.5 -155v-168h355v-90h-355v-889h-100v889h-498v-889 h-100v889h-201z" />
<glyph unicode="fi" horiz-adv-x="1169" d="M57 889v90h201v190q0 130 67.5 204.5t194.5 74.5q115 0 193 -41v-94q-80 43 -172 43q-89 0 -136 -54.5t-47 -154.5v-168h598v-979h-100v889h-498v-889h-100v889h-201zM825 1323q0 34 24 58t58 24t58 -24t24 -58t-24 -58t-58 -24t-58 24t-24 58z" />
<glyph unicode="fl" horiz-adv-x="1249" d="M57 889v90h201v190q0 130 67.5 204.5t194.5 74.5q115 0 193 -41v-94q-80 43 -172 43q-89 0 -136 -54.5t-47 -154.5v-168h498v455h100v-1207q0 -155 144 -155q52 0 100 28v-96q-49 -29 -131 -29q-40 0 -75 11t-67.5 35.5t-51.5 71.5t-19 112v684h-498v-889h-100v889h-201z " />
<glyph unicode="ffi" horiz-adv-x="1767" d="M57 889v90h201v190q0 130 67.5 204.5t194.5 74.5q115 0 193 -41v-94q-80 43 -172 43q-89 0 -136 -54.5t-47 -154.5v-168h498v190q0 130 67.5 204.5t194.5 74.5q112 0 193 -41v-94q-80 43 -172 43q-90 0 -136.5 -54t-46.5 -155v-168h598v-979h-100v889h-498v-889h-100v889 h-498v-889h-100v889h-201zM1423 1323q0 34 24 58t58 24t58 -24t24 -58t-24 -58t-58 -24t-58 24t-24 58z" />
<glyph unicode="ffl" horiz-adv-x="1845" d="M57 889v90h201v190q0 130 67.5 204.5t194.5 74.5q115 0 193 -41v-94q-80 43 -172 43q-89 0 -136 -54.5t-47 -154.5v-168h498v190q0 130 67.5 204.5t194.5 74.5q112 0 193 -41v-94q-80 43 -172 43q-90 0 -136.5 -54t-46.5 -155v-168h498v455h100v-1207q0 -155 142 -155 q54 0 102 28v-96q-49 -29 -131 -29q-41 0 -76 11t-67.5 35.5t-51 71.5t-18.5 112v684h-498v-889h-100v889h-498v-889h-100v889h-201z" />
<glyph unicode=" "  horiz-adv-x="546" />
<glyph unicode="&#x09;" horiz-adv-x="546" />
<glyph unicode="&#xa0;" horiz-adv-x="546" />
<glyph unicode="!" horiz-adv-x="546" d="M193 76q0 34 23.5 58t57.5 24t58 -24t24 -58t-24 -58t-58 -24t-57.5 24t-23.5 58zM213 1434h121l-15 -1006h-92z" />
<glyph unicode="&#x22;" horiz-adv-x="706" d="M121 944v490h96v-490h-96zM492 944v490h94v-490h-94z" />
<glyph unicode="#" horiz-adv-x="1462" d="M70 403l16 91h297l72 444h-301l16 90h297l68 406h94l-64 -406h430l64 406h96l-63 -406h301l-15 -90h-301l-69 -444h301l-15 -91h-303l-63 -403h-97l66 403h-430l-66 -403h-94l64 403h-301zM481 494h430l70 444h-428z" />
<glyph unicode="$" horiz-adv-x="1277" d="M98 129v117q80 -70 220 -122t296 -52q185 0 303.5 83t118.5 222q0 60 -25 108t-52 76t-97 58.5t-106.5 42t-134.5 39.5q-8 3 -13 4q-59 17 -96.5 29t-87 29.5t-81 34.5t-67.5 39.5t-57.5 48.5t-41 58t-28 72t-8.5 86q0 144 111.5 243t316.5 111v211h105v-211 q215 -12 381 -119v-108q-192 131 -432 131q-188 0 -283.5 -75t-95.5 -185q0 -53 24 -96.5t49 -69t95 -55t103.5 -40t134.5 -39.5q10 -3 16 -5q60 -17 99 -29.5t94 -34.5t91 -43t75.5 -53t62.5 -68t38 -84.5t15 -105.5q0 -119 -65.5 -209t-169 -136.5t-232.5 -54.5v-210h-105 v210q-145 7 -270.5 50t-200.5 102z" />
<glyph unicode="%" horiz-adv-x="1685" d="M111 1116q0 143 94.5 242.5t240.5 99.5t241 -99.5t95 -242.5t-95 -242.5t-241 -99.5t-240.5 99.5t-94.5 242.5zM201 1116q0 -110 69 -185t176 -75q108 0 178 75t70 185t-70 185t-178 75q-107 0 -176 -75t-69 -185zM375 0l833 1434h105l-836 -1434h-102zM901 317 q0 143 96 242.5t242 99.5q144 0 240 -99.5t96 -242.5t-96 -242.5t-240 -99.5q-146 0 -242 99.5t-96 242.5zM991 317q0 -110 69.5 -185t178.5 -75q107 0 176.5 75t69.5 185t-69.5 185.5t-176.5 75.5q-109 0 -178.5 -75.5t-69.5 -185.5z" />
<glyph unicode="&#x26;" horiz-adv-x="1441" d="M104 430q0 84 28.5 157.5t74 123t91 82t91.5 51.5q-110 126 -110 274q0 152 110.5 246t276.5 94q204 0 350 -115v-110q-148 133 -336 133q-138 0 -218.5 -67.5t-80.5 -182.5q0 -83 41.5 -151t124.5 -150l530 -512q131 188 140 459h100q-13 -311 -170 -526l246 -236h-140 l-168 162q-190 -187 -464 -187q-98 0 -189 29.5t-165 84.5t-118.5 143.5t-44.5 197.5zM207 430q0 -164 118.5 -263t297.5 -99q232 0 393 161l-561 541q-100 -31 -174 -120.5t-74 -219.5z" />
<glyph unicode="'" horiz-adv-x="337" d="M121 944v490h96v-490h-96z" />
<glyph unicode="(" horiz-adv-x="722" d="M207 512q0 544 307 934h111q-67 -88 -119 -175.5t-101 -203.5t-75.5 -257.5t-26.5 -297.5q0 -523 322 -934h-111q-307 382 -307 934z" />
<glyph unicode=")" horiz-adv-x="722" d="M98 -422q322 411 322 934q0 156 -26.5 297.5t-75.5 257.5t-101 203.5t-119 175.5h111q307 -394 307 -934q0 -547 -307 -934h-111z" />
<glyph unicode="*" horiz-adv-x="872" d="M102 926l258 147l-258 144l43 75l254 -155l-4 297h84l-4 -297l254 155l41 -75l-258 -144l258 -147l-41 -74l-254 156l4 -297h-84l4 297l-254 -156z" />
<glyph unicode="+" horiz-adv-x="1247" d="M143 616v93h435v434h92v-434h434v-93h-434v-432h-92v432h-435z" />
<glyph unicode="," horiz-adv-x="458" d="M45 -311l156 493h123l-193 -493h-86z" />
<glyph unicode="-" horiz-adv-x="976" d="M211 506v92h555v-92h-555z" />
<glyph unicode="." horiz-adv-x="458" d="M147 76q0 34 24 58t58 24t58 -24t24 -58t-24 -58t-58 -24t-58 24t-24 58z" />
<glyph unicode="/" horiz-adv-x="1026" d="M29 -287l862 1909h104l-862 -1909h-104z" />
<glyph unicode="0" horiz-adv-x="1445" d="M145 717q0 207 72 375.5t205 267t301 98.5t300.5 -98.5t204.5 -267t72 -375.5t-72 -376t-204.5 -267.5t-300.5 -98.5t-301 98.5t-205 267.5t-72 376zM248 717q0 -182 61 -329.5t170 -231.5t244 -84q136 0 245 84t169.5 231.5t60.5 329.5t-60.5 329t-169.5 230.5 t-245 83.5q-135 0 -244 -83.5t-170 -230.5t-61 -329z" />
<glyph unicode="1" horiz-adv-x="745" d="M76 1122v103l338 209h94v-1434h-102v1323z" />
<glyph unicode="2" horiz-adv-x="1171" d="M92 0l2 80l502 485q65 63 105 104.5t81.5 92.5t63 93t35.5 92t14 104q0 138 -96 223.5t-256 85.5q-131 0 -231.5 -53.5t-188.5 -147.5v125q174 174 430 174q195 0 320.5 -110.5t125.5 -288.5q0 -75 -18.5 -140t-61.5 -131.5t-96.5 -127t-140.5 -144.5l-434 -422h809v-94 h-965z" />
<glyph unicode="3" horiz-adv-x="1161" d="M84 80v110q74 -55 178.5 -86.5t224.5 -31.5q114 0 212.5 42t163.5 129t65 203q0 160 -116.5 259.5t-309.5 99.5q-66 0 -146 -17v72l482 479h-688v95h829v-76l-467 -467q78 -1 152.5 -19t140.5 -54.5t116 -88.5t79.5 -125t29.5 -158q0 -139 -71 -247.5t-192.5 -166 t-270.5 -57.5q-245 0 -412 105z" />
<glyph unicode="4" horiz-adv-x="1286" d="M80 414v84l792 936h99v-926h241v-94h-241v-414h-103v414h-788zM205 508h663v782z" />
<glyph unicode="5" horiz-adv-x="1222" d="M133 70v106q170 -104 391 -104q198 0 327.5 106t129.5 266q0 154 -120.5 254.5t-319.5 100.5q-186 0 -344 -58l94 693h692v-95h-612l-66 -475q97 31 258 31q222 0 371 -128t149 -323q0 -204 -159 -336.5t-398 -132.5q-226 0 -393 95z" />
<glyph unicode="6" horiz-adv-x="1306" d="M152 645q0 230 73.5 414t214.5 291.5t326 107.5q169 0 299 -88v-100q-137 90 -291 90q-128 0 -229.5 -58t-164 -157.5t-94.5 -225t-32 -268.5q54 110 172.5 183t273.5 73q194 0 329.5 -127.5t135.5 -324.5q0 -209 -137.5 -344.5t-341.5 -135.5q-246 0 -390 176t-144 494z M262 500q22 -203 128 -315.5t294 -112.5q159 0 269 108.5t110 272.5q0 160 -111 259t-274 99q-140 0 -256 -89.5t-160 -221.5z" />
<glyph unicode="7" horiz-adv-x="1116" d="M98 1339v95h922v-76l-690 -1358h-109l678 1339h-801z" />
<glyph unicode="8" horiz-adv-x="1323" d="M123 385q0 143 89 240t243 135q-118 39 -188 125.5t-70 204.5q0 164 131.5 266t333.5 102q199 0 330.5 -102t131.5 -266q0 -119 -69.5 -205t-188.5 -125q154 -38 243 -135t89 -240q0 -184 -153 -297t-383 -113q-151 0 -273 49.5t-194 144t-72 216.5zM227 391 q0 -137 124.5 -228t307.5 -91q184 0 309.5 91t125.5 228q0 139 -124.5 227.5t-310.5 88.5q-184 0 -308 -88.5t-124 -227.5zM299 1083q0 -121 104 -200.5t261 -79.5q153 0 255.5 79.5t102.5 200.5q0 124 -101.5 200.5t-256.5 76.5q-159 0 -262 -76.5t-103 -200.5z" />
<glyph unicode="9" horiz-adv-x="1306" d="M143 979q0 138 63.5 248t173 170.5t243.5 60.5q246 0 390 -176t144 -494q0 -230 -73.5 -414t-214.5 -291.5t-326 -107.5q-169 0 -299 88v101q136 -92 291 -92q103 0 189.5 38t146.5 104.5t102 156.5t61.5 193.5t20.5 217.5q-54 -110 -173.5 -183t-273.5 -73 q-194 0 -329.5 128t-135.5 325zM246 981q0 -160 111 -259t274 -99q140 0 256 89.5t160 221.5q-22 203 -128 314.5t-294 111.5q-160 0 -269.5 -107.5t-109.5 -271.5z" />
<glyph unicode=":" horiz-adv-x="458" d="M147 76q0 34 24 58t58 24t58 -24t24 -58t-24 -58t-58 -24t-58 24t-24 58zM147 868q0 34 24 58t58 24t58 -24t24 -58t-24 -58t-58 -24t-58 24t-24 58z" />
<glyph unicode=";" horiz-adv-x="460" d="M45 -311l156 493h123l-193 -493h-86zM156 868q0 34 24 58t58 24t57.5 -24t23.5 -58t-23.5 -58t-57.5 -24t-58 24t-24 58z" />
<glyph unicode="&#x3c;" horiz-adv-x="1247" d="M143 610v95l961 415v-98l-846 -367l846 -360v-102z" />
<glyph unicode="=" horiz-adv-x="1247" d="M143 383v90h961v-90h-961zM143 850v90h961v-90h-961z" />
<glyph unicode="&#x3e;" horiz-adv-x="1247" d="M143 193v102l846 360l-846 367v98l961 -415v-95z" />
<glyph unicode="?" horiz-adv-x="958" d="M63 1233v100q66 52 160.5 83.5t200.5 31.5q177 0 302.5 -106t125.5 -273q0 -76 -31.5 -143t-86 -116t-120.5 -85t-143 -59v-238h-96v293q67 15 131.5 45t120 72t89.5 101.5t34 125.5q0 128 -95 209.5t-241 81.5q-187 0 -351 -123zM346 76q0 34 24 58t58 24t58 -24t24 -58 t-24 -58t-58 -24t-58 24t-24 58z" />
<glyph unicode="@" horiz-adv-x="1980" d="M111 563q0 187 70 353.5t188.5 285t281.5 187.5t342 69q185 0 348.5 -66t279 -178.5t182.5 -268.5t67 -329q0 -208 -92 -343.5t-248 -135.5q-97 0 -155.5 49t-82.5 119q-44 -65 -134 -117.5t-200 -52.5q-119 0 -213 60t-143 156.5t-49 209.5t49.5 209.5t143.5 156.5 t212 60q106 0 188.5 -47.5t131.5 -110.5v127h98v-548q0 -107 47.5 -162.5t126.5 -55.5q118 0 193.5 120t75.5 308q0 157 -59 300t-164 252t-262 174t-341 65q-177 0 -332.5 -67.5t-264 -181.5t-171.5 -269.5t-63 -327.5q0 -232 105.5 -425t297 -307t428.5 -114q225 0 418 99 v-52q-187 -96 -418 -96q-180 0 -342 68t-281 186t-189 285t-70 356zM657 561q0 -139 93.5 -235.5t230.5 -96.5q90 0 171.5 50.5t125.5 126.5v311q-44 76 -125.5 126t-171.5 50q-138 0 -231 -96t-93 -236z" />
<glyph unicode="A" horiz-adv-x="1523" d="M68 0l649 1442h94l647 -1442h-106l-189 418h-801l-188 -418h-106zM399 508h727l-362 801z" />
<glyph unicode="B" horiz-adv-x="1474" d="M213 0v1434h604q191 0 297.5 -93t106.5 -254q0 -115 -51.5 -193t-145.5 -114q153 -23 239.5 -124t86.5 -259q0 -181 -122.5 -289t-340.5 -108h-674zM315 94h555q177 0 273 81.5t96 232.5q0 149 -96 230t-273 81h-555v-625zM315 809h490q151 0 233 68.5t82 195.5 t-82 196.5t-233 69.5h-490v-530z" />
<glyph unicode="C" horiz-adv-x="1419" d="M152 717q0 212 95 382t260 264.5t367 94.5q238 0 410 -112v-109q-191 123 -407 123q-171 0 -313 -82t-225 -230t-83 -331t83 -331.5t225.5 -231t314.5 -82.5q250 0 438 149v-112q-181 -134 -443 -134q-150 0 -283.5 55.5t-230 153t-152.5 236t-56 297.5z" />
<glyph unicode="D" horiz-adv-x="1587" d="M213 0v1434h449q170 0 314 -52.5t244.5 -146t157 -227t56.5 -291.5t-56.5 -291.5t-157 -227t-244.5 -146t-314 -52.5h-449zM315 94h330q317 0 500.5 170.5t183.5 452.5t-183.5 452t-500.5 170h-330v-1245z" />
<glyph unicode="E" horiz-adv-x="1304" d="M213 0v1434h963v-95h-861v-520h711v-96h-711v-629h893v-94h-995z" />
<glyph unicode="F" horiz-adv-x="1265" d="M213 0v1434h952v-95h-850v-538h703v-96h-703v-705h-102z" />
<glyph unicode="G" horiz-adv-x="1601" d="M152 717q0 212 95 382t259.5 264.5t365.5 94.5q276 0 467 -147v-109q-202 158 -458 158q-131 0 -246 -48t-198.5 -132t-132 -204.5t-48.5 -260.5q0 -138 48.5 -258.5t131 -204.5t196 -132t240.5 -48q137 0 253 42.5t194 125.5v581h102v-620q-96 -104 -235.5 -165 t-313.5 -61q-149 0 -282 55.5t-229.5 153t-152.5 236t-56 297.5z" />
<glyph unicode="H" horiz-adv-x="1556" d="M213 0v1434h102v-615h924v615h102v-1434h-102v723h-924v-723h-102z" />
<glyph unicode="I" horiz-adv-x="555" d="M227 0v1434h103v-1434h-103z" />
<glyph unicode="J" horiz-adv-x="1032" d="M76 72v110q126 -110 307 -110q352 0 352 370v992h103v-1008q0 -225 -115 -338t-324 -113q-191 0 -323 97z" />
<glyph unicode="K" horiz-adv-x="1312" d="M213 0v1434h102v-631l721 631h142l-748 -658l862 -776h-153l-824 743v-743h-102z" />
<glyph unicode="L" horiz-adv-x="1214" d="M213 0v1434h102v-1340h830v-94h-932z" />
<glyph unicode="M" horiz-adv-x="1734" d="M213 0v1434h104l551 -725l551 725h101v-1434h-103v1276l-516 -680h-65l-521 680v-1276h-102z" />
<glyph unicode="N" horiz-adv-x="1587" d="M213 0v1434h90l967 -1256v1256h102v-1434h-88l-969 1257v-1257h-102z" />
<glyph unicode="O" horiz-adv-x="1732" d="M152 717q0 209 93 379t256.5 266t364.5 96q149 0 281 -56.5t227 -154.5t150 -236t55 -294q0 -157 -55 -295t-150 -236t-227 -154.5t-281 -56.5q-201 0 -364.5 96t-256.5 266t-93 380zM256 717q0 -137 48 -257t129.5 -205t194 -134t238.5 -49t238.5 49t194 134t129 205 t47.5 257t-47.5 257t-129 204.5t-194 133t-238.5 48.5q-168 0 -307.5 -82.5t-221 -230.5t-81.5 -330z" />
<glyph unicode="P" horiz-adv-x="1361" d="M213 0v1434h598q211 0 327.5 -105.5t116.5 -281.5t-116.5 -283t-327.5 -107h-496v-657h-102zM315 752h486q169 0 260.5 77t91.5 218q0 140 -91.5 216t-260.5 76h-486v-587z" />
<glyph unicode="Q" horiz-adv-x="1732" d="M152 717q0 209 93 379t256.5 266t364.5 96q149 0 281 -56.5t227 -154.5t150 -236t55 -294q0 -258 -139 -451t-363 -260q137 -149 287 -149q103 0 170 49v-105q-77 -41 -176 -41q-107 0 -200 57.5t-197 166.5q-47 -9 -95 -9q-201 0 -364.5 96t-256.5 266t-93 380zM256 717 q0 -137 48 -257t129.5 -205t194 -134t238.5 -49t238.5 49t194 134t129 205t47.5 257t-47.5 257t-129 204.5t-194 133t-238.5 48.5q-168 0 -307.5 -82.5t-221 -230.5t-81.5 -330z" />
<glyph unicode="R" horiz-adv-x="1507" d="M213 0v1434h637q207 0 322.5 -103.5t115.5 -275.5q0 -155 -92.5 -256t-261.5 -121l469 -678h-119l-467 670h-502v-670h-102zM315 764h527q164 0 254 75t90 214q0 136 -90.5 211t-253.5 75h-527v-575z" />
<glyph unicode="S" horiz-adv-x="1277" d="M98 129v117q80 -70 220 -122t296 -52q185 0 303.5 83t118.5 222q0 60 -25 108t-52 76t-97 58.5t-106.5 42t-134.5 39.5q-8 3 -13 4q-59 17 -96.5 29t-87 29.5t-81 34.5t-67.5 39.5t-57.5 48.5t-41 58t-28 72t-8.5 86q0 153 124.5 254.5t352.5 101.5q249 0 437 -121v-108 q-192 131 -432 131q-188 0 -283.5 -75t-95.5 -185q0 -53 24 -96.5t49 -69t95 -55t103.5 -40t134.5 -39.5q10 -3 16 -5q60 -17 99 -29.5t94 -34.5t91 -43t75.5 -53t62.5 -68t38 -84.5t15 -105.5q0 -127 -73.5 -220t-189 -137.5t-255.5 -44.5q-160 0 -301.5 45t-223.5 109z " />
<glyph unicode="T" horiz-adv-x="1271" d="M74 1339v95h1126v-95h-512v-1339h-102v1339h-512z" />
<glyph unicode="U" horiz-adv-x="1529" d="M190 612v822h103v-822q0 -256 126.5 -398t346.5 -142t345.5 141.5t125.5 398.5v822h102v-822q0 -153 -42.5 -274.5t-119.5 -200.5t-181.5 -120.5t-229.5 -41.5q-259 0 -417.5 166.5t-158.5 470.5z" />
<glyph unicode="V" horiz-adv-x="1533" d="M78 1434h112l578 -1299l575 1299h113l-643 -1442h-94z" />
<glyph unicode="W" horiz-adv-x="2136" d="M90 1434h115l434 -1272l385 1276h86l389 -1276l432 1272h113l-498 -1442h-92l-385 1261l-391 -1261h-88z" />
<glyph unicode="X" horiz-adv-x="1431" d="M76 0l577 778l-485 656h123l428 -572l426 572h123l-490 -654l584 -780h-125l-520 696l-522 -696h-119z" />
<glyph unicode="Y" horiz-adv-x="1329" d="M53 1434h123l488 -674l491 674h117l-559 -768v-666h-103v664z" />
<glyph unicode="Z" horiz-adv-x="1308" d="M109 0v74l923 1265h-868v95h1003v-74l-913 -1266h946v-94h-1091z" />
<glyph unicode="[" horiz-adv-x="763" d="M203 -422v1868h479v-88h-383v-1692h383v-88h-479z" />
<glyph unicode="\" horiz-adv-x="1024" d="M33 1622h106l862 -1909h-106z" />
<glyph unicode="]" horiz-adv-x="763" d="M82 -334h381v1692h-381v88h477v-1868h-477v88z" />
<glyph unicode="^" horiz-adv-x="1032" d="M121 715l346 737h96l346 -737h-96l-297 639l-293 -639h-102z" />
<glyph unicode="_" horiz-adv-x="1249" d="M16 -168h1217v-78h-1217v78z" />
<glyph unicode="`" horiz-adv-x="1069" d="M356 1448h138l196 -266h-106z" />
<glyph unicode="a" horiz-adv-x="1208" d="M98 297q0 144 116.5 231.5t289.5 87.5q206 0 379 -104v125q0 140 -90.5 207t-253.5 67q-95 0 -182 -31t-148 -73v100q149 97 348 97q191 0 308.5 -89.5t117.5 -269.5v-430q0 -64 28 -100.5t76 -36.5q34 0 58 12v-82q-26 -16 -82 -16q-67 0 -115.5 41.5t-54.5 126.5 q-166 -185 -418 -185q-98 0 -182 35t-139.5 110t-55.5 177zM203 299q0 -60 25.5 -106t68.5 -72.5t95.5 -39.5t111.5 -13q119 0 219 56t160 134v160q-65 44 -158 77t-195 33q-154 0 -240.5 -62t-86.5 -167z" />
<glyph unicode="b" horiz-adv-x="1292" d="M182 0v1434h101v-627q65 90 167.5 143.5t233.5 53.5q146 0 261.5 -73t176 -190t60.5 -254q0 -101 -36 -194t-99.5 -163.5t-158 -112.5t-204.5 -42q-131 0 -233.5 53t-167.5 142v-170h-101zM283 307q48 -105 153 -172t228 -67q178 0 296.5 120.5t118.5 298.5 q0 181 -118.5 302.5t-296.5 121.5q-122 0 -226 -68t-155 -173v-363z" />
<glyph unicode="c" horiz-adv-x="1073" d="M111 489q0 141 65 258.5t184.5 187t268.5 69.5q166 0 295 -76v-97q-138 80 -283 80q-183 0 -305.5 -121.5t-122.5 -302.5q0 -180 122.5 -299.5t305.5 -119.5q170 0 301 92v-99q-133 -86 -315 -86q-148 0 -267 69.5t-184 186.5t-65 258z" />
<glyph unicode="d" horiz-adv-x="1294" d="M111 487q0 137 60.5 254t175.5 190t261 73q131 0 234 -53.5t168 -143.5v627h100v-1434h-100v170q-65 -89 -168 -142t-234 -53q-146 0 -261 72t-175.5 188t-60.5 252zM213 487q0 -178 119 -298.5t297 -120.5q123 0 227 66.5t154 172.5v363q-51 105 -155 173t-226 68 q-178 0 -297 -122t-119 -302z" />
<glyph unicode="e" horiz-adv-x="1163" d="M111 487q0 222 136.5 369.5t350.5 147.5q82 0 152 -23t118 -62.5t84.5 -89.5t57.5 -107t31 -110.5t10 -105.5v-33h-840q6 -181 130 -293t318 -112q182 0 316 92v-97q-52 -39 -140 -63.5t-190 -24.5q-229 0 -381.5 144t-152.5 368zM213 559h737q0 43 -11.5 89t-38.5 94 t-66.5 85t-101 60.5t-136.5 23.5q-86 0 -158.5 -31t-119 -82t-74 -113t-31.5 -126z" />
<glyph unicode="f" horiz-adv-x="770" d="M57 889v90h201v190q0 130 67.5 204.5t194.5 74.5q115 0 193 -41v-94q-80 43 -172 43q-89 0 -136 -54.5t-47 -154.5v-168h355v-90h-355v-889h-100v889h-201z" />
<glyph unicode="g" horiz-adv-x="1292" d="M111 496q0 135 61 250t176.5 186.5t261.5 71.5q130 0 233 -52t167 -141v168h100v-934q0 -114 -40.5 -203.5t-111.5 -145.5t-164.5 -85t-203.5 -29q-99 0 -202 26.5t-175 65.5v101q78 -47 176.5 -74t194.5 -27q192 0 309 92.5t117 278.5v131q-64 -88 -166.5 -139 t-233.5 -51q-146 0 -261.5 71t-176.5 187t-61 252zM213 496q0 -180 119 -299t299 -119q125 0 228 65t151 170v361q-48 106 -151.5 171.5t-227.5 65.5q-180 0 -299 -119t-119 -296z" />
<glyph unicode="h" horiz-adv-x="1239" d="M182 0v1434h101v-623q65 81 172 137t241 56q188 0 283.5 -106.5t95.5 -301.5v-596h-100v575q0 82 -20.5 144.5t-51 97.5t-74 56.5t-82 28.5t-81.5 7q-112 0 -221 -67.5t-162 -155.5v-686h-101z" />
<glyph unicode="i" horiz-adv-x="522" d="M178 1323q0 34 24 58t58 24t58 -24t24 -58t-24 -58t-58 -24t-58 24t-24 58zM211 0v979h100v-979h-100z" />
<glyph unicode="j" horiz-adv-x="522" d="M-113 -287q66 -39 142 -39q182 0 182 209v1096h100v-1112q0 -79 -21.5 -136.5t-60 -88.5t-83.5 -45.5t-99 -14.5q-99 0 -160 37v94zM178 1323q0 34 24 58t58 24t58 -24t24 -58t-24 -58t-58 -24t-58 24t-24 58z" />
<glyph unicode="k" horiz-adv-x="1062" d="M182 0v1434h101v-867l508 412h145l-547 -442l621 -537h-150l-577 498v-498h-101z" />
<glyph unicode="l" horiz-adv-x="575" d="M182 205v1229h101v-1207q0 -155 143 -155q54 0 102 28v-96q-52 -29 -133 -29q-40 0 -75 11t-67.5 35.5t-51.5 71.5t-19 112z" />
<glyph unicode="m" horiz-adv-x="1871" d="M182 0v979h101v-160q52 79 148 132t220 53q125 0 205 -54t113 -153q62 89 160.5 148t230.5 59q166 0 257 -102t91 -292v-610h-100v590q0 81 -19.5 141.5t-48 93.5t-68 53t-71 25.5t-66.5 5.5q-104 0 -201 -67t-143 -162q4 -78 4 -102v-578h-100v592q0 317 -270 317 q-100 0 -194.5 -62.5t-147.5 -156.5v-690h-101z" />
<glyph unicode="n" horiz-adv-x="1239" d="M182 0v979h101v-168q65 81 172 137t241 56q188 0 283.5 -106.5t95.5 -301.5v-596h-100v575q0 82 -20.5 144.5t-51 97.5t-74 56.5t-82 28.5t-81.5 7q-112 0 -221 -67.5t-162 -155.5v-686h-101z" />
<glyph unicode="o" horiz-adv-x="1263" d="M111 487q0 102 37.5 195.5t104 165t165 114t213.5 42.5q116 0 215 -42.5t165.5 -114t104 -165t37.5 -195.5q0 -101 -37.5 -194t-104 -163.5t-165.5 -112.5t-215 -42q-115 0 -213.5 42t-165 112.5t-104 163.5t-37.5 194zM213 487q0 -177 120 -298t298 -121t299 121 t121 298q0 180 -121 302t-299 122t-298 -122t-120 -302z" />
<glyph unicode="p" horiz-adv-x="1292" d="M182 -410v1389h101v-170q65 89 167.5 142t233.5 53q146 0 261.5 -72.5t176 -189t60.5 -253.5q0 -101 -36 -194t-99.5 -164t-158 -113.5t-204.5 -42.5q-131 0 -233.5 53.5t-167.5 143.5v-582h-101zM283 309q48 -105 153 -173t228 -68q178 0 296.5 121t118.5 300 t-118.5 300.5t-296.5 121.5q-123 0 -228 -67t-153 -172v-363z" />
<glyph unicode="q" horiz-adv-x="1294" d="M111 489q0 137 60.5 253.5t175.5 189t261 72.5q131 0 234 -53t168 -142v170h100v-1389h-100v582q-65 -90 -168 -143.5t-234 -53.5q-146 0 -261 72.5t-175.5 189t-60.5 252.5zM213 489q0 -179 119 -300t297 -121q123 0 228 68t153 173v363q-50 106 -154 172.5t-227 66.5 q-178 0 -297 -121.5t-119 -300.5z" />
<glyph unicode="r" horiz-adv-x="712" d="M182 0v979h101v-203q54 94 161.5 161t233.5 67v-103q-140 0 -244.5 -77.5t-150.5 -180.5v-643h-101z" />
<glyph unicode="s" horiz-adv-x="1026" d="M96 80v106q64 -44 172.5 -81t231.5 -37q141 0 224 50t83 138q0 34 -17 61.5t-42 46.5t-73 37t-89 29.5t-111 28.5q-63 15 -108 29.5t-93.5 37.5t-78 51t-49 68.5t-19.5 91.5q0 123 98.5 195t280.5 72q95 0 192.5 -25t161.5 -66v-102q-71 44 -163 72t-185 28 q-143 0 -214 -48t-71 -126q0 -29 10.5 -53.5t31.5 -42.5t45 -31.5t60 -25t66.5 -20t72.5 -18.5q4 -1 7 -1.5t6 -1.5q52 -12 81.5 -20t76 -23t73.5 -28.5t59.5 -36t50 -47t30 -59t12.5 -75.5q0 -129 -116 -204t-291 -75q-123 0 -233.5 31.5t-172.5 73.5z" />
<glyph unicode="t" horiz-adv-x="866" d="M57 889v90h248v313h101v-313h360v-90h-360v-602q0 -120 42 -167.5t140 -47.5q82 0 164 45v-97q-27 -19 -81 -32t-110 -13q-130 0 -193 76t-63 209v629h-248z" />
<glyph unicode="u" horiz-adv-x="1243" d="M166 383v596h100v-576q0 -333 309 -333q111 0 219.5 67.5t163.5 155.5v686h101v-979h-101v168q-65 -81 -172 -137t-241 -56q-188 0 -283.5 106.5t-95.5 301.5z" />
<glyph unicode="v" horiz-adv-x="1140" d="M63 979h115l395 -852l392 852h108l-457 -987h-94z" />
<glyph unicode="w" horiz-adv-x="1667" d="M88 979h105l303 -832l295 836h86l297 -836l301 832h102l-358 -987h-86l-304 835l-294 -835h-89z" />
<glyph unicode="x" horiz-adv-x="1110" d="M74 0l428 520l-373 459h123l311 -381l311 381h119l-370 -455l426 -524h-125l-365 446l-366 -446h-119z" />
<glyph unicode="y" horiz-adv-x="1114" d="M53 979h113l389 -840l377 840h110l-493 -1090q-70 -153 -148 -230t-190 -77q-99 0 -143 31v94q56 -33 131 -33q51 0 92 21t78 70t66.5 104.5t70.5 148.5z" />
<glyph unicode="z" horiz-adv-x="1011" d="M78 0v68l676 821h-627v90h772v-72l-674 -817h707v-90h-854z" />
<glyph unicode="{" horiz-adv-x="714" d="M113 471v82q37 4 65 16.5t44.5 36t26.5 45.5t14.5 58.5t5.5 61.5t1 67v342q0 128 70 197t195 69h100v-88h-84q-184 0 -184 -182v-361q0 -124 -26.5 -196.5t-107.5 -106.5q81 -34 107.5 -106.5t26.5 -196.5v-361q0 -182 184 -182h84v-88h-100q-125 0 -195 69t-70 197v340 q0 36 -0.5 57.5t-3.5 54t-9 52.5t-17.5 44.5t-28 38.5t-41.5 25.5t-57 14.5z" />
<glyph unicode="|" horiz-adv-x="608" d="M256 -227v1783h94v-1783h-94z" />
<glyph unicode="}" horiz-adv-x="714" d="M80 -334h84q184 0 184 182v361q0 125 26 197t107 106q-81 34 -107 106t-26 197v361q0 182 -184 182h-84v88h102q124 0 193 -69t69 -197v-342q0 -42 1 -67t5.5 -61.5t15 -59t27 -45.5t44.5 -35.5t65 -16.5v-82q-37 -4 -65 -17t-44.5 -36t-27 -45.5t-15 -59t-5.5 -62 t-1 -67.5v-340q0 -128 -69 -197t-193 -69h-102v88z" />
<glyph unicode="~" horiz-adv-x="1163" d="M143 442v103q26 35 83 56.5t126 21.5q82 0 229.5 -50.5t229.5 -50.5q132 0 209 86v-102q-26 -35 -84 -55.5t-125 -20.5q-83 0 -230 50t-229 50q-133 0 -209 -88z" />
<glyph unicode="&#xa1;" horiz-adv-x="546" d="M190 903q0 34 24 58t58 24t58 -24t24 -58t-24 -58t-58 -24t-58 24t-24 58zM211 -410l16 959h92l17 -959h-125z" />
<glyph unicode="&#xa2;" horiz-adv-x="1073" d="M111 489q0 202 131 348t340 164v218h92v-218q134 -8 250 -73v-97q-138 80 -283 80q-183 0 -305.5 -121.5t-122.5 -302.5q0 -180 122.5 -299.5t305.5 -119.5q170 0 301 92v-99q-111 -75 -268 -84v-217h-92v217q-206 17 -338.5 162.5t-132.5 349.5z" />
<glyph unicode="&#xa3;" horiz-adv-x="1185" d="M133 0v94h49q94 0 94 162v365h-143v94h143v289q0 218 118.5 336t334.5 118q191 0 334 -94v-104q-61 47 -147.5 73.5t-176.5 26.5q-176 0 -269 -94t-93 -275v-276h598v-94h-598v-418q0 -38 -13.5 -67t-33.5 -42h739v-94h-936z" />
<glyph unicode="&#xa4;" horiz-adv-x="1142" d="M119 328l131 133q-88 115 -88 258q0 141 88 256l-131 133l63 59l131 -131q110 92 256 92q149 0 256 -92l133 131l64 -59l-135 -133q90 -110 90 -256q0 -147 -88 -258l133 -133l-64 -58l-133 129q-108 -90 -256 -90q-146 0 -256 92l-131 -131zM252 719q0 -134 92 -228 t225 -94t225.5 94t92.5 228t-92.5 227.5t-225.5 93.5t-225 -93.5t-92 -227.5z" />
<glyph unicode="&#xa5;" horiz-adv-x="1253" d="M53 1434h119l455 -676l454 676h117l-483 -715h403v-94h-442v-228h442v-94h-442v-303h-103v303h-438v94h438v228h-438v94h400z" />
<glyph unicode="&#xa6;" horiz-adv-x="608" d="M256 -227v723h94v-723h-94zM256 834v722h94v-722h-94z" />
<glyph unicode="&#xa7;" horiz-adv-x="1314" d="M141 627q0 105 66 179t180 112q-88 45 -133 102.5t-45 140.5q0 130 117 213.5t331 83.5q246 0 439 -117v-106q-204 125 -445 125q-158 0 -248 -54.5t-90 -148.5q0 -22 6 -41.5t15 -35.5t27 -31.5t33 -27t42.5 -25t47 -22t55.5 -21.5t58 -20t63.5 -20.5t64.5 -21.5 q86 -29 148 -54.5t122 -59.5t97 -70t59.5 -84t22.5 -105q0 -105 -66 -179t-180 -112q88 -45 133 -102.5t45 -140.5q0 -130 -117.5 -213.5t-331.5 -83.5q-247 0 -438 116v107q204 -125 445 -125q158 0 247.5 54.5t89.5 148.5q0 22 -6 41.5t-15 35.5t-26.5 31.5t-32.5 27 t-43 25t-47.5 22t-55 21.5t-57.5 20t-63.5 20.5t-64.5 21.5q-86 29 -148 54.5t-122 59.5t-97 70t-59.5 84t-22.5 105zM242 635q0 -35 13 -66.5t32.5 -56t53 -48t64.5 -40t78.5 -34.5t82.5 -30t87 -28q63 -25 170 -56q111 22 180.5 84.5t69.5 149.5q0 35 -13 66.5t-32.5 56 t-53 48t-64.5 40t-78.5 34.5t-82.5 30t-87 28q-55 22 -170 55q-111 -23 -180.5 -84.5t-69.5 -148.5z" />
<glyph unicode="&#xa8;" horiz-adv-x="1069" d="M264 1321q0 32 23 55t55 23t55 -23t23 -55t-23 -55t-55 -23t-55 23t-23 55zM655 1321q0 32 23 55t55 23t55 -23t23 -55t-23 -55t-55 -23t-55 23t-23 55z" />
<glyph unicode="&#xa9;" horiz-adv-x="1787" d="M152 717q0 200 99 370.5t270 270.5t372 100q152 0 289 -58.5t236 -158t157.5 -237t58.5 -289.5q0 -150 -58.5 -286.5t-158 -236t-237 -158.5t-289.5 -59q-202 0 -372.5 99.5t-268.5 270t-98 372.5zM203 715q0 -141 54 -269t145.5 -220t219 -146.5t269.5 -54.5t271 54.5 t221.5 147t147 220t54.5 268.5q0 142 -54 270.5t-146.5 221.5t-220.5 147.5t-271 54.5q-142 0 -270 -54.5t-220 -147.5t-146 -221.5t-54 -270.5zM547 717q0 168 112.5 280.5t278.5 112.5q118 0 207 -53v-90q-86 59 -207 59q-127 0 -212 -87.5t-85 -221.5t85.5 -221.5 t215.5 -87.5t223 75v-92q-94 -67 -227 -67q-166 0 -278.5 113t-112.5 280z" />
<glyph unicode="&#xaa;" horiz-adv-x="1077" d="M147 897q0 117 91 181.5t217 64.5q151 0 282 -78v88q0 106 -67 158.5t-191 52.5q-73 0 -140 -23.5t-108 -54.5v86q109 72 265 72q146 0 237.5 -70t91.5 -209v-329q0 -45 21 -70t57 -25q26 0 41 9v-76q-20 -10 -61 -10q-55 0 -93.5 31.5t-44.5 92.5q-127 -139 -311 -139 q-119 0 -203 67t-84 181zM238 901q0 -84 64 -128t155 -44q87 0 162 43.5t118 101.5v115q-44 30 -116.5 54t-145.5 24q-111 0 -174 -44t-63 -122z" />
<glyph unicode="&#xab;" horiz-adv-x="1099" d="M104 463v55l320 375h117l-342 -406l342 -401h-117zM563 463v55l318 375h118l-342 -406l342 -401h-118z" />
<glyph unicode="&#xac;" horiz-adv-x="1138" d="M143 680v90h852v-451h-92v361h-760z" />
<glyph unicode="&#xad;" horiz-adv-x="976" d="M211 506v92h555v-92h-555z" />
<glyph unicode="&#xae;" horiz-adv-x="1787" d="M152 717q0 200 99 370.5t270 270.5t372 100q152 0 289 -58.5t236 -158t157.5 -237t58.5 -289.5q0 -150 -58.5 -286.5t-158 -236t-237 -158.5t-289.5 -59q-202 0 -372.5 99.5t-268.5 270t-98 372.5zM203 715q0 -141 54 -269t145.5 -220t219 -146.5t269.5 -54.5t271 54.5 t221.5 147t147 220t54.5 268.5q0 142 -54 270.5t-146.5 221.5t-220.5 147.5t-271 54.5q-142 0 -270 -54.5t-220 -147.5t-146 -221.5t-54 -270.5zM623 344v762h348q114 0 177.5 -58t63.5 -153q0 -79 -45.5 -132.5t-130.5 -70.5l248 -348h-104l-240 338h-227v-338h-90z M713 760h254q74 0 113.5 34.5t39.5 98.5q0 65 -40 100t-113 35h-254v-268z" />
<glyph unicode="&#xaf;" horiz-adv-x="1062" d="M291 1278v82h477v-82h-477z" />
<glyph unicode="&#xb0;" horiz-adv-x="899" d="M143 1153q0 126 90.5 215.5t215.5 89.5q126 0 217.5 -89.5t91.5 -215.5t-91.5 -215.5t-217.5 -89.5q-125 0 -215.5 89.5t-90.5 215.5zM229 1153q0 -92 64.5 -156.5t155.5 -64.5q92 0 156.5 64.5t64.5 156.5t-64.5 156.5t-156.5 64.5q-91 0 -155.5 -64.5t-64.5 -156.5z " />
<glyph unicode="&#xb1;" horiz-adv-x="1247" d="M143 135v90h961v-90h-961zM143 737v94h435v355h92v-355h434v-94h-434v-350h-92v350h-435z" />
<glyph unicode="&#xb2;" horiz-adv-x="731" d="M94 659v70l260 244q81 74 116.5 126.5t35.5 112.5q0 65 -46 104.5t-122 39.5q-126 0 -227 -94v98q96 84 235 84q108 0 181 -61.5t73 -159.5q0 -77 -41 -143t-131 -152l-197 -189h398v-80h-535z" />
<glyph unicode="&#xb3;" horiz-adv-x="661" d="M53 709v88q100 -66 226 -66q84 0 147 48t63 128q0 76 -54 121t-148 45q-45 0 -92 -14v63l235 232h-344v80h469v-68l-229 -225q48 -2 91.5 -16.5t81.5 -41.5t60.5 -73t22.5 -105q0 -114 -84 -185t-213 -71q-144 0 -232 60z" />
<glyph unicode="&#xb4;" horiz-adv-x="1036" d="M391 1182l197 266h133l-223 -266h-107z" />
<glyph unicode="&#xb5;" horiz-adv-x="1259" d="M182 -410v1389h101v-576q0 -333 309 -333q111 0 219.5 67.5t163.5 155.5v686h100v-979h-100v168q-65 -81 -172.5 -137t-241.5 -56q-179 0 -278 105v-490h-101z" />
<glyph unicode="&#xb6;" horiz-adv-x="1038" d="M104 1049q0 177 115.5 281t325.5 104h278v-1434h-100v666h-178q-209 0 -325 105t-116 278z" />
<glyph unicode="&#xb7;" horiz-adv-x="458" d="M147 780q0 34 24 58t58 24t58 -24t24 -58t-24 -58t-58 -24t-58 24t-24 58z" />
<glyph unicode="&#xb8;" horiz-adv-x="968" d="M301 -262l186 272h88l-151 -272h-123z" />
<glyph unicode="&#xb9;" horiz-adv-x="481" d="M51 1208v95l219 131h88v-775h-94v676z" />
<glyph unicode="&#xba;" horiz-adv-x="960" d="M76 1044q0 107 49.5 198t144 146.5t213.5 55.5q178 0 290 -117.5t112 -282.5t-112 -280t-290 -115q-180 0 -293.5 115.5t-113.5 279.5zM174 1047q0 -134 88 -224t221 -90q131 0 219.5 90.5t88.5 223.5q0 132 -88.5 221.5t-219.5 89.5q-133 0 -221 -89t-88 -222z" />
<glyph unicode="&#xbb;" horiz-adv-x="1101" d="M102 86l342 403l-342 404h117l320 -375v-55l-320 -377h-117zM561 86l342 403l-342 404h117l319 -375v-55l-319 -377h-117z" />
<glyph unicode="&#xbc;" horiz-adv-x="1499" d="M51 1208v95l219 131h88v-775h-94v676zM240 0l835 1434h105l-836 -1434h-104zM823 209v70l416 495h88v-487h125v-78h-125v-209h-92v209h-412zM930 287h305v364z" />
<glyph unicode="&#xbd;" horiz-adv-x="1634" d="M51 1208v95l219 131h88v-775h-94v676zM240 0l835 1434h105l-836 -1434h-104zM995 0v70l260 243q81 74 116.5 126.5t35.5 113.5q0 65 -46 104t-122 39q-126 0 -227 -94v98q96 84 235 84q108 0 181 -61.5t73 -159.5q0 -77 -41 -143t-131 -152l-196 -188h397v-80h-535z" />
<glyph unicode="&#xbe;" horiz-adv-x="1607" d="M53 709v88q100 -66 226 -66q84 0 147 48t63 128q0 76 -54 121t-148 45q-45 0 -92 -14v63l235 232h-344v80h469v-68l-229 -225q48 -2 91.5 -16.5t81.5 -41.5t60.5 -73t22.5 -105q0 -114 -84 -185t-213 -71q-144 0 -232 60zM346 0l836 1434h104l-835 -1434h-105zM930 209 v70l416 495h88v-487h125v-78h-125v-209h-93v209h-411zM1036 287h305v364z" />
<glyph unicode="&#xbf;" horiz-adv-x="958" d="M106 -47q0 76 31.5 141.5t86 114t120.5 83.5t143 58v199h99v-258q-68 -15 -131.5 -42.5t-119.5 -68t-90 -99.5t-34 -126q0 -126 94 -203.5t240 -77.5q186 0 350 123v-100q-66 -51 -163 -83t-204 -32q-177 0 -299.5 102t-122.5 269zM453 903q0 34 24 58t58 24t57.5 -24 t23.5 -58t-23.5 -58t-57.5 -24t-58 24t-24 58z" />
<glyph unicode="&#xc0;" horiz-adv-x="1523" d="M68 0l649 1442h94l647 -1442h-106l-189 418h-801l-188 -418h-106zM399 508h727l-362 801zM483 1829h135l197 -266h-106z" />
<glyph unicode="&#xc1;" horiz-adv-x="1523" d="M68 0l649 1442h94l647 -1442h-106l-189 418h-801l-188 -418h-106zM399 508h727l-362 801zM719 1563l196 266h134l-224 -266h-106z" />
<glyph unicode="&#xc2;" horiz-adv-x="1523" d="M68 0l649 1442h94l647 -1442h-106l-189 418h-801l-188 -418h-106zM399 508h727l-362 801zM489 1563l222 266h106l221 -266h-108l-166 200l-166 -200h-109z" />
<glyph unicode="&#xc3;" horiz-adv-x="1523" d="M68 0l649 1442h94l647 -1442h-106l-189 418h-801l-188 -418h-106zM399 508h727l-362 801zM457 1599q5 92 46 146.5t111 54.5q37 0 80 -19t75 -42.5t70 -42.5t66 -19q43 0 61 30t25 85h78q-5 -93 -46.5 -149t-113.5 -56q-36 0 -78.5 20t-75 44.5t-70 44.5t-64.5 20 q-74 0 -86 -117h-78z" />
<glyph unicode="&#xc4;" horiz-adv-x="1523" d="M68 0l649 1442h94l647 -1442h-106l-189 418h-801l-188 -418h-106zM399 508h727l-362 801zM489 1690q0 32 23 54.5t55 22.5t55 -22.5t23 -54.5t-23 -55t-55 -23t-55 23t-23 55zM881 1690q0 32 22.5 54.5t54.5 22.5t55 -22.5t23 -54.5t-23 -55t-55 -23t-54.5 23t-22.5 55z " />
<glyph unicode="&#xc5;" horiz-adv-x="1523" d="M68 0l649 1442h94l647 -1442h-106l-189 418h-801l-188 -418h-106zM399 508h727l-362 801zM573 1698q0 79 57 135.5t138 56.5q76 0 132 -57t56 -135t-55.5 -134.5t-132.5 -56.5q-81 0 -138 56.5t-57 134.5zM643 1698q0 -51 35.5 -86t89.5 -35q51 0 86 35t35 86 q0 54 -34.5 88.5t-86.5 34.5q-54 0 -89.5 -34.5t-35.5 -88.5z" />
<glyph unicode="&#xc6;" horiz-adv-x="2080" d="M6 0l905 1434h1041v-95h-852v-520h702v-96h-702v-629h882v-94h-985v418h-612l-264 -418h-115zM440 508h557v831h-26z" />
<glyph unicode="&#xc7;" horiz-adv-x="1419" d="M152 717q0 212 95 382t260 264.5t367 94.5q238 0 410 -112v-109q-191 123 -407 123q-171 0 -313 -82t-225 -230t-83 -331t83 -331.5t225.5 -231t314.5 -82.5q250 0 438 149v-112q-164 -123 -397 -132l-134 -239h-124l159 239q-142 9 -265.5 68.5t-212.5 155.5t-140 229.5 t-51 286.5z" />
<glyph unicode="&#xc8;" horiz-adv-x="1304" d="M213 0v1434h963v-95h-861v-520h711v-96h-711v-629h893v-94h-995zM436 1829h135l197 -266h-106z" />
<glyph unicode="&#xc9;" horiz-adv-x="1304" d="M213 0v1434h963v-95h-861v-520h711v-96h-711v-629h893v-94h-995zM592 1563l196 266h134l-224 -266h-106z" />
<glyph unicode="&#xca;" horiz-adv-x="1304" d="M213 0v1434h963v-95h-861v-520h711v-96h-711v-629h893v-94h-995zM438 1563l221 266h107l221 -266h-108l-166 200l-166 -200h-109z" />
<glyph unicode="&#xcb;" horiz-adv-x="1304" d="M213 0v1434h963v-95h-861v-520h711v-96h-711v-629h893v-94h-995zM434 1690q0 32 23 54.5t55 22.5t55 -22.5t23 -54.5t-23 -55t-55 -23t-55 23t-23 55zM825 1690q0 32 23 54.5t55 22.5t55 -22.5t23 -54.5t-23 -55t-55 -23t-55 23t-23 55z" />
<glyph unicode="&#xcc;" horiz-adv-x="555" d="M-4 1829h135l197 -266h-107zM227 0v1434h103v-1434h-103z" />
<glyph unicode="&#xcd;" horiz-adv-x="555" d="M217 1563l197 266h133l-223 -266h-107zM227 0v1434h103v-1434h-103z" />
<glyph unicode="&#xce;" horiz-adv-x="555" d="M4 1563l221 266h107l221 -266h-109l-165 200l-166 -200h-109zM227 0v1434h103v-1434h-103z" />
<glyph unicode="&#xcf;" horiz-adv-x="552" d="M2 1690q0 32 23 54.5t55 22.5t55 -22.5t23 -54.5t-23 -55t-55 -23t-55 23t-23 55zM225 0v1434h103v-1434h-103zM393 1690q0 32 23 54.5t55 22.5t55 -22.5t23 -54.5t-23 -55t-55 -23t-55 23t-23 55z" />
<glyph unicode="&#xd0;" horiz-adv-x="1677" d="M68 678v94h237v662h449q170 0 314 -52.5t244.5 -146t157 -227t56.5 -291.5t-56.5 -291.5t-157 -227t-244.5 -146t-314 -52.5h-449v678h-237zM408 94h329q315 0 499.5 170.5t184.5 452.5t-184 452t-500 170h-329v-567h348v-94h-348v-584z" />
<glyph unicode="&#xd1;" horiz-adv-x="1587" d="M213 0v1434h90l967 -1256v1256h102v-1434h-88l-969 1257v-1257h-102zM487 1599q5 92 46.5 146.5t111.5 54.5q37 0 80 -19t75 -42.5t70 -42.5t66 -19q43 0 61 30t25 85h78q-5 -93 -46.5 -149t-113.5 -56q-45 0 -100 32.5t-105 64.5t-84 32q-74 0 -86 -117h-78z" />
<glyph unicode="&#xd2;" horiz-adv-x="1732" d="M152 717q0 209 93 379t256.5 266t364.5 96q149 0 281 -56.5t227 -154.5t150 -236t55 -294q0 -157 -55 -295t-150 -236t-227 -154.5t-281 -56.5q-201 0 -364.5 96t-256.5 266t-93 380zM256 717q0 -137 48 -257t129.5 -205t194 -134t238.5 -49t238.5 49t194 134t129 205 t47.5 257t-47.5 257t-129 204.5t-194 133t-238.5 48.5q-168 0 -307.5 -82.5t-221 -230.5t-81.5 -330zM588 1829h135l197 -266h-107z" />
<glyph unicode="&#xd3;" horiz-adv-x="1732" d="M152 717q0 209 93 379t256.5 266t364.5 96q149 0 281 -56.5t227 -154.5t150 -236t55 -294q0 -157 -55 -295t-150 -236t-227 -154.5t-281 -56.5q-201 0 -364.5 96t-256.5 266t-93 380zM256 717q0 -137 48 -257t129.5 -205t194 -134t238.5 -49t238.5 49t194 134t129 205 t47.5 257t-47.5 257t-129 204.5t-194 133t-238.5 48.5q-168 0 -307.5 -82.5t-221 -230.5t-81.5 -330zM772 1563l197 266h133l-223 -266h-107z" />
<glyph unicode="&#xd4;" horiz-adv-x="1732" d="M152 717q0 209 93 379t256.5 266t364.5 96q149 0 281 -56.5t227 -154.5t150 -236t55 -294q0 -157 -55 -295t-150 -236t-227 -154.5t-281 -56.5q-201 0 -364.5 96t-256.5 266t-93 380zM256 717q0 -137 48 -257t129.5 -205t194 -134t238.5 -49t238.5 49t194 134t129 205 t47.5 257t-47.5 257t-129 204.5t-194 133t-238.5 48.5q-168 0 -307.5 -82.5t-221 -230.5t-81.5 -330zM592 1563l221 266h107l221 -266h-109l-166 200l-166 -200h-108z" />
<glyph unicode="&#xd5;" horiz-adv-x="1732" d="M152 717q0 209 93 379t256.5 266t364.5 96q149 0 281 -56.5t227 -154.5t150 -236t55 -294q0 -157 -55 -295t-150 -236t-227 -154.5t-281 -56.5q-201 0 -364.5 96t-256.5 266t-93 380zM256 717q0 -137 48 -257t129.5 -205t194 -134t238.5 -49t238.5 49t194 134t129 205 t47.5 257t-47.5 257t-129 204.5t-194 133t-238.5 48.5q-168 0 -307.5 -82.5t-221 -230.5t-81.5 -330zM561 1599q5 92 46.5 146.5t111.5 54.5q37 0 80 -19t75 -42.5t70 -42.5t66 -19q43 0 61 30t25 85h78q-5 -93 -46.5 -149t-113.5 -56q-45 0 -100 32.5t-105 64.5t-84 32 q-74 0 -86 -117h-78z" />
<glyph unicode="&#xd6;" horiz-adv-x="1732" d="M152 717q0 209 93 379t256.5 266t364.5 96q149 0 281 -56.5t227 -154.5t150 -236t55 -294q0 -157 -55 -295t-150 -236t-227 -154.5t-281 -56.5q-201 0 -364.5 96t-256.5 266t-93 380zM256 717q0 -137 48 -257t129.5 -205t194 -134t238.5 -49t238.5 49t194 134t129 205 t47.5 257t-47.5 257t-129 204.5t-194 133t-238.5 48.5q-168 0 -307.5 -82.5t-221 -230.5t-81.5 -330zM594 1690q0 32 23 54.5t55 22.5t55 -22.5t23 -54.5t-23 -55t-55 -23t-55 23t-23 55zM985 1690q0 32 23 54.5t55 22.5t55 -22.5t23 -54.5t-23 -55t-55 -23t-55 23t-23 55z " />
<glyph unicode="&#xd7;" horiz-adv-x="1071" d="M143 336l328 326l-328 329l64 64l330 -326l325 326l66 -64l-330 -329l328 -324l-64 -68l-323 328l-332 -328z" />
<glyph unicode="&#xd8;" horiz-adv-x="1732" d="M152 717q0 209 93 379t256.5 266t364.5 96q244 0 439 -149l102 125h111l-150 -183q100 -102 155.5 -239t55.5 -295q0 -157 -55 -295t-150 -236t-227 -154.5t-281 -56.5q-244 0 -438 148l-102 -123h-109l148 178q-102 102 -157.5 240t-55.5 299zM256 717q0 -279 174 -459 l809 973q-160 129 -373 129q-168 0 -307.5 -82.5t-221 -230.5t-81.5 -330zM494 201q160 -129 372 -129q126 0 238.5 49t194 134t129 205t47.5 257q0 276 -175 457z" />
<glyph unicode="&#xd9;" horiz-adv-x="1529" d="M190 612v822h103v-822q0 -256 126.5 -398t346.5 -142t345.5 141.5t125.5 398.5v822h102v-822q0 -153 -42.5 -274.5t-119.5 -200.5t-181.5 -120.5t-229.5 -41.5q-259 0 -417.5 166.5t-158.5 470.5zM510 1829h135l197 -266h-107z" />
<glyph unicode="&#xda;" horiz-adv-x="1529" d="M190 612v822h103v-822q0 -256 126.5 -398t346.5 -142t345.5 141.5t125.5 398.5v822h102v-822q0 -153 -42.5 -274.5t-119.5 -200.5t-181.5 -120.5t-229.5 -41.5q-259 0 -417.5 166.5t-158.5 470.5zM700 1563l197 266h133l-223 -266h-107z" />
<glyph unicode="&#xdb;" horiz-adv-x="1529" d="M190 612v822h103v-822q0 -256 126.5 -398t346.5 -142t345.5 141.5t125.5 398.5v822h102v-822q0 -153 -42.5 -274.5t-119.5 -200.5t-181.5 -120.5t-229.5 -41.5q-259 0 -417.5 166.5t-158.5 470.5zM489 1563l222 266h106l221 -266h-108l-166 200l-166 -200h-109z" />
<glyph unicode="&#xdc;" horiz-adv-x="1529" d="M190 612v822h103v-822q0 -256 126.5 -398t346.5 -142t345.5 141.5t125.5 398.5v822h102v-822q0 -153 -42.5 -274.5t-119.5 -200.5t-181.5 -120.5t-229.5 -41.5q-259 0 -417.5 166.5t-158.5 470.5zM492 1690q0 32 22.5 54.5t54.5 22.5t55 -22.5t23 -54.5t-23 -55t-55 -23 t-54.5 23t-22.5 55zM883 1690q0 32 23 54.5t55 22.5t54.5 -22.5t22.5 -54.5t-22.5 -55t-54.5 -23t-55 23t-23 55z" />
<glyph unicode="&#xdd;" horiz-adv-x="1329" d="M53 1434h123l488 -674l491 674h117l-559 -768v-666h-103v664zM590 1563l196 266h134l-224 -266h-106z" />
<glyph unicode="&#xde;" horiz-adv-x="1361" d="M213 0v1434h102v-330h496q211 0 327.5 -106t116.5 -281q0 -176 -116.5 -282.5t-327.5 -106.5h-496v-328h-102zM315 422h486q169 0 260.5 77t91.5 218q0 140 -91.5 215.5t-260.5 75.5h-486v-586z" />
<glyph unicode="&#xdf;" horiz-adv-x="1257" d="M182 0v1016q0 196 118 314t310 118q180 0 294 -99.5t114 -250.5q0 -117 -57.5 -189.5t-157.5 -103.5q146 -32 244 -139.5t98 -280.5q0 -187 -126 -298.5t-321 -111.5q-121 0 -192 31v98q73 -36 178 -36q156 0 257 88.5t101 238.5q0 159 -117 259t-309 100h-45v88h45 q141 0 220 63.5t79 184.5q0 116 -84.5 191t-220.5 75q-145 0 -236 -92t-91 -248v-1016h-101z" />
<glyph unicode="&#xe0;" horiz-adv-x="1208" d="M98 297q0 144 116.5 231.5t289.5 87.5q206 0 379 -104v125q0 140 -90.5 207t-253.5 67q-95 0 -182 -31t-148 -73v100q149 97 348 97q191 0 308.5 -89.5t117.5 -269.5v-430q0 -64 28 -100.5t76 -36.5q34 0 58 12v-82q-26 -16 -82 -16q-67 0 -115.5 41.5t-54.5 126.5 q-166 -185 -418 -185q-98 0 -182 35t-139.5 110t-55.5 177zM203 299q0 -60 25.5 -106t68.5 -72.5t95.5 -39.5t111.5 -13q119 0 219 56t160 134v160q-65 44 -158 77t-195 33q-154 0 -240.5 -62t-86.5 -167zM365 1448h137l196 -266h-106z" />
<glyph unicode="&#xe1;" horiz-adv-x="1208" d="M98 297q0 144 116.5 231.5t289.5 87.5q206 0 379 -104v125q0 140 -90.5 207t-253.5 67q-95 0 -182 -31t-148 -73v100q149 97 348 97q191 0 308.5 -89.5t117.5 -269.5v-430q0 -64 28 -100.5t76 -36.5q34 0 58 12v-82q-26 -16 -82 -16q-67 0 -115.5 41.5t-54.5 126.5 q-166 -185 -418 -185q-98 0 -182 35t-139.5 110t-55.5 177zM203 299q0 -60 25.5 -106t68.5 -72.5t95.5 -39.5t111.5 -13q119 0 219 56t160 134v160q-65 44 -158 77t-195 33q-154 0 -240.5 -62t-86.5 -167zM481 1182l197 266h133l-223 -266h-107z" />
<glyph unicode="&#xe2;" horiz-adv-x="1208" d="M98 297q0 144 116.5 231.5t289.5 87.5q206 0 379 -104v125q0 140 -90.5 207t-253.5 67q-95 0 -182 -31t-148 -73v100q149 97 348 97q191 0 308.5 -89.5t117.5 -269.5v-430q0 -64 28 -100.5t76 -36.5q34 0 58 12v-82q-26 -16 -82 -16q-67 0 -115.5 41.5t-54.5 126.5 q-166 -185 -418 -185q-98 0 -182 35t-139.5 110t-55.5 177zM203 299q0 -60 25.5 -106t68.5 -72.5t95.5 -39.5t111.5 -13q119 0 219 56t160 134v160q-65 44 -158 77t-195 33q-154 0 -240.5 -62t-86.5 -167zM293 1180l223 268h107l221 -268h-109l-168 200l-166 -200h-108z" />
<glyph unicode="&#xe3;" horiz-adv-x="1208" d="M98 297q0 144 116.5 231.5t289.5 87.5q206 0 379 -104v125q0 140 -90.5 207t-253.5 67q-95 0 -182 -31t-148 -73v100q149 97 348 97q191 0 308.5 -89.5t117.5 -269.5v-430q0 -64 28 -100.5t76 -36.5q34 0 58 12v-82q-26 -16 -82 -16q-67 0 -115.5 41.5t-54.5 126.5 q-166 -185 -418 -185q-98 0 -182 35t-139.5 110t-55.5 177zM203 299q0 -60 25.5 -106t68.5 -72.5t95.5 -39.5t111.5 -13q119 0 219 56t160 134v160q-65 44 -158 77t-195 33q-154 0 -240.5 -62t-86.5 -167zM268 1225q5 93 47.5 147.5t112.5 54.5q37 0 80 -19.5t75.5 -42.5 t69.5 -42.5t64 -19.5q42 0 60.5 30.5t23.5 83.5h78q-3 -93 -44.5 -149t-111.5 -56q-37 0 -80.5 20t-75.5 43.5t-70.5 43.5t-66.5 20q-72 0 -84 -114h-78z" />
<glyph unicode="&#xe4;" horiz-adv-x="1208" d="M98 297q0 144 116.5 231.5t289.5 87.5q206 0 379 -104v125q0 140 -90.5 207t-253.5 67q-95 0 -182 -31t-148 -73v100q149 97 348 97q191 0 308.5 -89.5t117.5 -269.5v-430q0 -64 28 -100.5t76 -36.5q34 0 58 12v-82q-26 -16 -82 -16q-67 0 -115.5 41.5t-54.5 126.5 q-166 -185 -418 -185q-98 0 -182 35t-139.5 110t-55.5 177zM203 299q0 -60 25.5 -106t68.5 -72.5t95.5 -39.5t111.5 -13q119 0 219 56t160 134v160q-65 44 -158 77t-195 33q-154 0 -240.5 -62t-86.5 -167zM313 1321q0 32 23 55t55 23t55 -23t23 -55t-23 -55t-55 -23t-55 23 t-23 55zM705 1321q0 32 22.5 55t54.5 23t55 -23t23 -55t-23 -55t-55 -23t-54.5 23t-22.5 55z" />
<glyph unicode="&#xe5;" horiz-adv-x="1208" d="M98 297q0 144 116.5 231.5t289.5 87.5q206 0 379 -104v125q0 140 -90.5 207t-253.5 67q-95 0 -182 -31t-148 -73v100q149 97 348 97q191 0 308.5 -89.5t117.5 -269.5v-430q0 -64 28 -100.5t76 -36.5q34 0 58 12v-82q-26 -16 -82 -16q-67 0 -115.5 41.5t-54.5 126.5 q-166 -185 -418 -185q-98 0 -182 35t-139.5 110t-55.5 177zM203 299q0 -60 25.5 -106t68.5 -72.5t95.5 -39.5t111.5 -13q119 0 219 56t160 134v160q-65 44 -158 77t-195 33q-154 0 -240.5 -62t-86.5 -167zM385 1321q0 79 57 135.5t138 56.5q78 0 133 -57t55 -135t-55 -134.5 t-133 -56.5q-81 0 -138 56.5t-57 134.5zM455 1321q0 -51 36 -86t89 -35q51 0 86.5 35t35.5 86q0 53 -35 88t-87 35q-53 0 -89 -35t-36 -88z" />
<glyph unicode="&#xe6;" horiz-adv-x="1933" d="M98 297q0 144 116 230.5t290 86.5q204 0 381 -104v125q0 141 -91 208.5t-255 67.5q-95 0 -182 -31t-148 -73v100q151 97 348 97q148 0 254.5 -57t146.5 -171q63 107 169 167.5t241 60.5q82 0 152 -23t118 -62.5t84.5 -89.5t57.5 -107t31 -110.5t10 -105.5v-33h-840 q6 -181 130.5 -293t318.5 -112q181 0 315 92v-97q-52 -39 -140 -63.5t-190 -24.5q-151 0 -271 64t-188 178q-28 -37 -68 -73.5t-99.5 -77t-140 -66t-165.5 -25.5q-103 0 -189 35t-141 110t-55 177zM203 299q0 -79 44.5 -133t111 -76t149.5 -22q242 0 410 223q-23 60 -31 125 q-177 114 -357 114q-153 0 -240 -62.5t-87 -168.5zM983 559h737q0 43 -11.5 89t-38.5 94t-66 85t-101 60.5t-137 23.5q-86 0 -158.5 -31t-119 -82t-74 -113t-31.5 -126z" />
<glyph unicode="&#xe7;" horiz-adv-x="1073" d="M111 489q0 141 65 258.5t184.5 187t268.5 69.5q166 0 295 -76v-97q-138 80 -283 80q-183 0 -305.5 -121.5t-122.5 -302.5q0 -180 122.5 -299.5t305.5 -119.5q170 0 301 92v-99q-110 -72 -250 -84l-133 -239h-123l162 237q-212 9 -349.5 157.5t-137.5 356.5z" />
<glyph unicode="&#xe8;" horiz-adv-x="1163" d="M111 487q0 222 136.5 369.5t350.5 147.5q82 0 152 -23t118 -62.5t84.5 -89.5t57.5 -107t31 -110.5t10 -105.5v-33h-840q6 -181 130 -293t318 -112q182 0 316 92v-97q-52 -39 -140 -63.5t-190 -24.5q-229 0 -381.5 144t-152.5 368zM213 559h737q0 43 -11.5 89t-38.5 94 t-66.5 85t-101 60.5t-136.5 23.5q-86 0 -158.5 -31t-119 -82t-74 -113t-31.5 -126zM401 1448h138l196 -266h-106z" />
<glyph unicode="&#xe9;" horiz-adv-x="1163" d="M111 487q0 222 136.5 369.5t350.5 147.5q82 0 152 -23t118 -62.5t84.5 -89.5t57.5 -107t31 -110.5t10 -105.5v-33h-840q6 -181 130 -293t318 -112q182 0 316 92v-97q-52 -39 -140 -63.5t-190 -24.5q-229 0 -381.5 144t-152.5 368zM213 559h737q0 43 -11.5 89t-38.5 94 t-66.5 85t-101 60.5t-136.5 23.5q-86 0 -158.5 -31t-119 -82t-74 -113t-31.5 -126zM492 1182l196 266h133l-223 -266h-106z" />
<glyph unicode="&#xea;" horiz-adv-x="1163" d="M111 487q0 222 136.5 369.5t350.5 147.5q82 0 152 -23t118 -62.5t84.5 -89.5t57.5 -107t31 -110.5t10 -105.5v-33h-840q6 -181 130 -293t318 -112q182 0 316 92v-97q-52 -39 -140 -63.5t-190 -24.5q-229 0 -381.5 144t-152.5 368zM213 559h737q0 43 -11.5 89t-38.5 94 t-66.5 85t-101 60.5t-136.5 23.5q-86 0 -158.5 -31t-119 -82t-74 -113t-31.5 -126zM319 1180l224 268h106l221 -268h-108l-168 200l-166 -200h-109z" />
<glyph unicode="&#xeb;" horiz-adv-x="1163" d="M111 487q0 222 136.5 369.5t350.5 147.5q82 0 152 -23t118 -62.5t84.5 -89.5t57.5 -107t31 -110.5t10 -105.5v-33h-840q6 -181 130 -293t318 -112q182 0 316 92v-97q-52 -39 -140 -63.5t-190 -24.5q-229 0 -381.5 144t-152.5 368zM213 559h737q0 43 -11.5 89t-38.5 94 t-66.5 85t-101 60.5t-136.5 23.5q-86 0 -158.5 -31t-119 -82t-74 -113t-31.5 -126zM336 1321q0 32 23 55t55 23t55 -23t23 -55t-23 -55t-55 -23t-55 23t-23 55zM727 1321q0 32 23 55t55 23t55 -23t23 -55t-23 -55t-55 -23t-55 23t-23 55z" />
<glyph unicode="&#xec;" horiz-adv-x="518" d="M-18 1448h137l196 -266h-106zM209 0v979h100v-979h-100z" />
<glyph unicode="&#xed;" horiz-adv-x="518" d="M207 1182l196 266h134l-224 -266h-106zM209 0v979h100v-979h-100z" />
<glyph unicode="&#xee;" horiz-adv-x="518" d="M-16 1180l223 268h106l222 -268h-109l-168 200l-166 -200h-108zM209 0v979h100v-979h-100z" />
<glyph unicode="&#xef;" horiz-adv-x="518" d="M-14 1321q0 32 22.5 55t54.5 23t55 -23t23 -55t-23 -55t-55 -23t-54.5 23t-22.5 55zM209 0v979h100v-979h-100zM377 1321q0 32 23 55t55 23t54.5 -23t22.5 -55t-22.5 -55t-54.5 -23t-55 23t-23 55z" />
<glyph unicode="&#xf0;" horiz-adv-x="1218" d="M111 463q0 129 58.5 238.5t169 176t249.5 66.5q143 0 243 -57l-231 330l-281 -113l-45 65l279 115l-111 150h113l84 -117l244 102l45 -65l-244 -103q234 -334 297 -434q62 -94 94.5 -172t32.5 -176q0 -97 -36 -186.5t-100 -158t-158.5 -109t-205.5 -40.5q-147 0 -262 69 t-175 179.5t-60 239.5zM213 465q0 -169 113 -283t282 -114q170 0 284 114t114 283t-114 281t-284 112q-169 0 -282 -112t-113 -281z" />
<glyph unicode="&#xf1;" horiz-adv-x="1239" d="M182 0v979h101v-168q65 81 172 137t241 56q188 0 283.5 -106.5t95.5 -301.5v-596h-100v575q0 82 -20.5 144.5t-51 97.5t-74 56.5t-82 28.5t-81.5 7q-112 0 -221 -67.5t-162 -155.5v-686h-101zM324 1225q5 93 47 147.5t112 54.5q37 0 80 -19.5t75.5 -42.5t69.5 -42.5 t64 -19.5q42 0 60.5 30.5t23.5 83.5h78q-3 -93 -44.5 -149t-111.5 -56q-37 0 -80.5 20t-75.5 43.5t-70.5 43.5t-66.5 20q-72 0 -84 -114h-77z" />
<glyph unicode="&#xf2;" horiz-adv-x="1263" d="M111 487q0 102 37.5 195.5t104 165t165 114t213.5 42.5q116 0 215 -42.5t165.5 -114t104 -165t37.5 -195.5q0 -101 -37.5 -194t-104 -163.5t-165.5 -112.5t-215 -42q-115 0 -213.5 42t-165 112.5t-104 163.5t-37.5 194zM213 487q0 -177 120 -298t298 -121t299 121 t121 298q0 180 -121 302t-299 122t-298 -122t-120 -302zM393 1448h137l197 -266h-106z" />
<glyph unicode="&#xf3;" horiz-adv-x="1263" d="M111 487q0 102 37.5 195.5t104 165t165 114t213.5 42.5q116 0 215 -42.5t165.5 -114t104 -165t37.5 -195.5q0 -101 -37.5 -194t-104 -163.5t-165.5 -112.5t-215 -42q-115 0 -213.5 42t-165 112.5t-104 163.5t-37.5 194zM213 487q0 -177 120 -298t298 -121t299 121 t121 298q0 180 -121 302t-299 122t-298 -122t-120 -302zM561 1182l197 266h133l-223 -266h-107z" />
<glyph unicode="&#xf4;" horiz-adv-x="1263" d="M111 487q0 102 37.5 195.5t104 165t165 114t213.5 42.5q116 0 215 -42.5t165.5 -114t104 -165t37.5 -195.5q0 -101 -37.5 -194t-104 -163.5t-165.5 -112.5t-215 -42q-115 0 -213.5 42t-165 112.5t-104 163.5t-37.5 194zM213 487q0 -177 120 -298t298 -121t299 121 t121 298q0 180 -121 302t-299 122t-298 -122t-120 -302zM358 1180l224 268h106l221 -268h-108l-168 200l-166 -200h-109z" />
<glyph unicode="&#xf5;" horiz-adv-x="1263" d="M111 487q0 102 37.5 195.5t104 165t165 114t213.5 42.5q116 0 215 -42.5t165.5 -114t104 -165t37.5 -195.5q0 -101 -37.5 -194t-104 -163.5t-165.5 -112.5t-215 -42q-115 0 -213.5 42t-165 112.5t-104 163.5t-37.5 194zM213 487q0 -177 120 -298t298 -121t299 121 t121 298q0 180 -121 302t-299 122t-298 -122t-120 -302zM328 1225q5 93 47 147.5t112 54.5q37 0 80 -19.5t75.5 -42.5t69.5 -42.5t64 -19.5q42 0 60.5 30.5t23.5 83.5h78q-3 -93 -44.5 -149t-111.5 -56q-37 0 -80.5 20t-75.5 43.5t-70.5 43.5t-66.5 20q-71 0 -83 -114h-78z " />
<glyph unicode="&#xf6;" horiz-adv-x="1263" d="M111 487q0 102 37.5 195.5t104 165t165 114t213.5 42.5q116 0 215 -42.5t165.5 -114t104 -165t37.5 -195.5q0 -101 -37.5 -194t-104 -163.5t-165.5 -112.5t-215 -42q-115 0 -213.5 42t-165 112.5t-104 163.5t-37.5 194zM213 487q0 -177 120 -298t298 -121t299 121 t121 298q0 180 -121 302t-299 122t-298 -122t-120 -302zM358 1321q0 32 23 55t55 23t55 -23t23 -55t-23 -55t-55 -23t-55 23t-23 55zM750 1321q0 32 22.5 55t54.5 23t55 -23t23 -55t-23 -55t-55 -23t-54.5 23t-22.5 55z" />
<glyph unicode="&#xf7;" horiz-adv-x="1189" d="M143 616v93h904v-93h-904zM504 262q0 37 26.5 63.5t63.5 26.5t63.5 -26.5t26.5 -63.5t-26.5 -63.5t-63.5 -26.5t-63.5 26.5t-26.5 63.5zM504 1063q0 37 26.5 63.5t63.5 26.5t63.5 -26.5t26.5 -63.5t-26.5 -63.5t-63.5 -26.5t-63.5 26.5t-26.5 63.5z" />
<glyph unicode="&#xf8;" horiz-adv-x="1263" d="M111 487q0 102 37.5 195.5t104 165t165 114t213.5 42.5q165 0 301 -91l55 66h107l-97 -119q74 -72 115 -170t41 -203q0 -101 -37.5 -194t-104 -163.5t-165.5 -112.5t-215 -42q-170 0 -301 88l-56 -63h-106l98 117q-155 149 -155 370zM213 487q0 -173 117 -297l540 648 q-110 73 -239 73q-178 0 -298 -122t-120 -302zM391 139q107 -71 240 -71q178 0 299 121t121 298q0 178 -119 297z" />
<glyph unicode="&#xf9;" horiz-adv-x="1243" d="M166 383v596h100v-576q0 -333 309 -333q111 0 219.5 67.5t163.5 155.5v686h101v-979h-101v168q-65 -81 -172 -137t-241 -56q-188 0 -283.5 106.5t-95.5 301.5zM395 1448h137l197 -266h-106z" />
<glyph unicode="&#xfa;" horiz-adv-x="1243" d="M166 383v596h100v-576q0 -333 309 -333q111 0 219.5 67.5t163.5 155.5v686h101v-979h-101v168q-65 -81 -172 -137t-241 -56q-188 0 -283.5 106.5t-95.5 301.5zM508 1182l197 266h133l-224 -266h-106z" />
<glyph unicode="&#xfb;" horiz-adv-x="1243" d="M166 383v596h100v-576q0 -333 309 -333q111 0 219.5 67.5t163.5 155.5v686h101v-979h-101v168q-65 -81 -172 -137t-241 -56q-188 0 -283.5 106.5t-95.5 301.5zM336 1180l223 268h107l221 -268h-109l-168 200l-166 -200h-108z" />
<glyph unicode="&#xfc;" horiz-adv-x="1243" d="M166 383v596h100v-576q0 -333 309 -333q111 0 219.5 67.5t163.5 155.5v686h101v-979h-101v168q-65 -81 -172 -137t-241 -56q-188 0 -283.5 106.5t-95.5 301.5zM338 1321q0 32 23 55t55 23t55 -23t23 -55t-23 -55t-55 -23t-55 23t-23 55zM729 1321q0 32 23 55t55 23 t55 -23t23 -55t-23 -55t-55 -23t-55 23t-23 55z" />
<glyph unicode="&#xfd;" horiz-adv-x="1114" d="M53 979h113l389 -840l377 840h110l-493 -1090q-70 -153 -148 -230t-190 -77q-99 0 -143 31v94q56 -33 131 -33q51 0 92 21t78 70t66.5 104.5t70.5 148.5zM473 1182l197 266h133l-223 -266h-107z" />
<glyph unicode="&#xfe;" horiz-adv-x="1294" d="M182 -410v1844h101v-625q65 89 167.5 142t233.5 53q110 0 204.5 -42.5t158.5 -113t100.5 -164t36.5 -195.5q0 -101 -36.5 -194t-100.5 -164t-158.5 -113.5t-204.5 -42.5q-131 0 -233.5 53.5t-167.5 143.5v-582h-101zM283 309q48 -105 153 -173t228 -68q178 0 296.5 121 t118.5 300t-118.5 300.5t-296.5 121.5q-123 0 -228 -67t-153 -172v-363z" />
<glyph unicode="&#xff;" horiz-adv-x="1114" d="M53 979h113l389 -840l377 840h110l-493 -1090q-70 -153 -148 -230t-190 -77q-99 0 -143 31v94q56 -33 131 -33q51 0 92 21t78 70t66.5 104.5t70.5 148.5zM274 1321q0 32 23 55t55 23t55 -23t23 -55t-23 -55t-55 -23t-55 23t-23 55zM666 1321q0 32 22.5 55t54.5 23t55 -23 t23 -55t-23 -55t-55 -23t-54.5 23t-22.5 55z" />
<glyph unicode="&#x100;" horiz-adv-x="1523" d="M68 0l649 1442h94l647 -1442h-106l-189 418h-801l-188 -418h-106zM399 508h727l-362 801zM524 1653v86h484v-86h-484z" />
<glyph unicode="&#x101;" horiz-adv-x="1208" d="M98 297q0 144 116.5 231.5t289.5 87.5q206 0 379 -104v125q0 140 -90.5 207t-253.5 67q-95 0 -182 -31t-148 -73v100q149 97 348 97q191 0 308.5 -89.5t117.5 -269.5v-430q0 -64 28 -100.5t76 -36.5q34 0 58 12v-82q-26 -16 -82 -16q-67 0 -115.5 41.5t-54.5 126.5 q-166 -185 -418 -185q-98 0 -182 35t-139.5 110t-55.5 177zM203 299q0 -60 25.5 -106t68.5 -72.5t95.5 -39.5t111.5 -13q119 0 219 56t160 134v160q-65 44 -158 77t-195 33q-154 0 -240.5 -62t-86.5 -167zM344 1278v82h477v-82h-477z" />
<glyph unicode="&#x102;" horiz-adv-x="1523" d="M68 0l649 1442h94l647 -1442h-106l-189 418h-801l-188 -418h-106zM399 508h727l-362 801zM498 1829h88q2 -79 52 -133t126 -54t127 54t53 133h84q0 -114 -77 -191t-187 -77q-109 0 -185.5 76.5t-80.5 191.5z" />
<glyph unicode="&#x103;" horiz-adv-x="1208" d="M98 297q0 144 116.5 231.5t289.5 87.5q206 0 379 -104v125q0 140 -90.5 207t-253.5 67q-95 0 -182 -31t-148 -73v100q149 97 348 97q191 0 308.5 -89.5t117.5 -269.5v-430q0 -64 28 -100.5t76 -36.5q34 0 58 12v-82q-26 -16 -82 -16q-67 0 -115.5 41.5t-54.5 126.5 q-166 -185 -418 -185q-98 0 -182 35t-139.5 110t-55.5 177zM203 299q0 -60 25.5 -106t68.5 -72.5t95.5 -39.5t111.5 -13q119 0 219 56t160 134v160q-65 44 -158 77t-195 33q-154 0 -240.5 -62t-86.5 -167zM309 1448h86q2 -78 52.5 -131t127.5 -53q76 0 126.5 53.5 t52.5 130.5h86q0 -114 -79 -190t-186 -76q-110 0 -188 75.5t-78 190.5z" />
<glyph unicode="&#x104;" horiz-adv-x="1523" d="M68 0l649 1442h94l647 -1442q-80 -87 -80 -180q0 -64 43 -101.5t111 -37.5q46 0 82 10v-74q-46 -12 -98 -12q-102 0 -161 56.5t-59 145.5q0 105 78 193h-22l-189 418h-801l-188 -418h-106zM399 508h727l-362 801z" />
<glyph unicode="&#x105;" horiz-adv-x="1206" d="M98 297q0 144 116.5 231.5t289.5 87.5q206 0 379 -104v125q0 140 -90.5 207t-253.5 67q-95 0 -182 -31t-148 -73v100q149 97 348 97q191 0 308.5 -89.5t117.5 -269.5v-430q0 -64 28 -100.5t76 -36.5q34 0 58 12v-82q-80 -87 -80 -180q0 -64 43 -101.5t111 -37.5 q45 0 81 10v-74q-46 -12 -98 -12q-102 0 -160.5 57t-58.5 146q0 94 64 176q-63 5 -106.5 47t-47.5 121q-166 -185 -418 -185q-98 0 -182 35t-139.5 110t-55.5 177zM203 299q0 -60 25.5 -106t68.5 -72.5t95.5 -39.5t111.5 -13q119 0 219 56t160 134v160q-65 44 -158 77 t-195 33q-154 0 -240.5 -62t-86.5 -167z" />
<glyph unicode="&#x106;" horiz-adv-x="1419" d="M152 717q0 212 95 382t260 264.5t367 94.5q238 0 410 -112v-109q-191 123 -407 123q-171 0 -313 -82t-225 -230t-83 -331t83 -331.5t225.5 -231t314.5 -82.5q250 0 438 149v-112q-181 -134 -443 -134q-150 0 -283.5 55.5t-230 153t-152.5 236t-56 297.5zM754 1563 l196 266h133l-223 -266h-106z" />
<glyph unicode="&#x107;" horiz-adv-x="1069" d="M111 489q0 141 65 258.5t184.5 187t268.5 69.5q166 0 295 -76v-97q-138 80 -283 80q-183 0 -305.5 -121.5t-122.5 -302.5q0 -180 122.5 -299.5t305.5 -119.5q170 0 301 92v-99q-133 -86 -315 -86q-148 0 -267 69.5t-184 186.5t-65 258zM508 1182l197 266h133l-224 -266 h-106z" />
<glyph unicode="&#x108;" horiz-adv-x="1419" d="M152 717q0 212 95 382t260 264.5t367 94.5q238 0 410 -112v-109q-191 123 -407 123q-171 0 -313 -82t-225 -230t-83 -331t83 -331.5t225.5 -231t314.5 -82.5q250 0 438 149v-112q-181 -134 -443 -134q-150 0 -283.5 55.5t-230 153t-152.5 236t-56 297.5zM559 1563 l221 266h107l221 -266h-109l-165 200l-166 -200h-109z" />
<glyph unicode="&#x109;" horiz-adv-x="1073" d="M111 489q0 141 65 258.5t184.5 187t268.5 69.5q166 0 295 -76v-97q-138 80 -283 80q-183 0 -305.5 -121.5t-122.5 -302.5q0 -180 122.5 -299.5t305.5 -119.5q170 0 301 92v-99q-133 -86 -315 -86q-148 0 -267 69.5t-184 186.5t-65 258zM311 1180l224 268h106l221 -268 h-108l-168 200l-166 -200h-109z" />
<glyph unicode="&#x10a;" horiz-adv-x="1419" d="M152 717q0 212 95 382t260 264.5t367 94.5q238 0 410 -112v-109q-191 123 -407 123q-171 0 -313 -82t-225 -230t-83 -331t83 -331.5t225.5 -231t314.5 -82.5q250 0 438 149v-112q-181 -134 -443 -134q-150 0 -283.5 55.5t-230 153t-152.5 236t-56 297.5zM780 1690 q0 34 24 58t58 24t58 -24t24 -58t-24 -58t-58 -24t-58 24t-24 58z" />
<glyph unicode="&#x10b;" horiz-adv-x="1073" d="M111 489q0 141 65 258.5t184.5 187t268.5 69.5q166 0 295 -76v-97q-138 80 -283 80q-183 0 -305.5 -121.5t-122.5 -302.5q0 -180 122.5 -299.5t305.5 -119.5q170 0 301 92v-99q-133 -86 -315 -86q-148 0 -267 69.5t-184 186.5t-65 258zM543 1321q0 34 24 58t58 24t58 -24 t24 -58t-24 -58t-58 -24t-58 24t-24 58z" />
<glyph unicode="&#x10c;" horiz-adv-x="1419" d="M152 717q0 212 95 382t260 264.5t367 94.5q238 0 410 -112v-109q-191 123 -407 123q-171 0 -313 -82t-225 -230t-83 -331t83 -331.5t225.5 -231t314.5 -82.5q250 0 438 149v-112q-181 -134 -443 -134q-150 0 -283.5 55.5t-230 153t-152.5 236t-56 297.5zM582 1829h106 l166 -199l168 199h108l-223 -266h-104z" />
<glyph unicode="&#x10d;" horiz-adv-x="1069" d="M111 489q0 141 65 258.5t184.5 187t268.5 69.5q166 0 295 -76v-97q-138 80 -283 80q-183 0 -305.5 -121.5t-122.5 -302.5q0 -180 122.5 -299.5t305.5 -119.5q170 0 301 92v-99q-133 -86 -315 -86q-148 0 -267 69.5t-184 186.5t-65 258zM340 1448h106l166 -201l168 201 h107l-221 -266h-107z" />
<glyph unicode="&#x10e;" horiz-adv-x="1587" d="M213 0v1434h449q170 0 314 -52.5t244.5 -146t157 -227t56.5 -291.5t-56.5 -291.5t-157 -227t-244.5 -146t-314 -52.5h-449zM315 94h330q317 0 500.5 170.5t183.5 452.5t-183.5 452t-500.5 170h-330v-1245zM422 1829h106l166 -199l168 199h109l-223 -266h-105z" />
<glyph unicode="&#x10f;" horiz-adv-x="1507" d="M111 487q0 137 60.5 254t175.5 190t261 73q131 0 234 -53.5t168 -143.5v627h100v-1434h-100v170q-65 -89 -168 -142t-234 -53q-146 0 -261 72t-175.5 188t-60.5 252zM213 487q0 -178 119 -298.5t297 -120.5q123 0 227 66.5t154 172.5v363q-51 105 -155 173t-226 68 q-178 0 -297 -122t-119 -302zM1290 1085l113 347h110l-137 -347h-86z" />
<glyph unicode="&#x110;" horiz-adv-x="1677" d="M68 678v94h237v662h449q170 0 314 -52.5t244.5 -146t157 -227t56.5 -291.5t-56.5 -291.5t-157 -227t-244.5 -146t-314 -52.5h-449v678h-237zM408 94h329q315 0 499.5 170.5t184.5 452.5t-184 452t-500 170h-329v-567h348v-94h-348v-584z" />
<glyph unicode="&#x111;" horiz-adv-x="1292" d="M111 487q0 137 60.5 254t175.5 190t261 73q131 0 234 -53.5t168 -143.5v330h-265v90h265v207h100v-207h209v-90h-209v-1137h-100v170q-65 -89 -168 -142t-234 -53q-146 0 -261 72t-175.5 188t-60.5 252zM213 487q0 -178 119 -298.5t297 -120.5q123 0 227 66.5t154 172.5 v363q-51 105 -155 173t-226 68q-178 0 -297 -122t-119 -302z" />
<glyph unicode="&#x112;" horiz-adv-x="1304" d="M213 0v1434h963v-95h-861v-520h711v-96h-711v-629h893v-94h-995zM469 1653v86h483v-86h-483z" />
<glyph unicode="&#x113;" horiz-adv-x="1163" d="M111 487q0 222 136.5 369.5t350.5 147.5q82 0 152 -23t118 -62.5t84.5 -89.5t57.5 -107t31 -110.5t10 -105.5v-33h-840q6 -181 130 -293t318 -112q182 0 316 92v-97q-52 -39 -140 -63.5t-190 -24.5q-229 0 -381.5 144t-152.5 368zM213 559h737q0 43 -11.5 89t-38.5 94 t-66.5 85t-101 60.5t-136.5 23.5q-86 0 -158.5 -31t-119 -82t-74 -113t-31.5 -126zM356 1278v82h478v-82h-478z" />
<glyph unicode="&#x114;" horiz-adv-x="1304" d="M213 0v1434h963v-95h-861v-520h711v-96h-711v-629h893v-94h-995zM444 1829h88q2 -79 52.5 -133t126.5 -54t127 54t53 133h84q0 -114 -77 -191t-187 -77q-109 0 -186 76.5t-81 191.5z" />
<glyph unicode="&#x115;" horiz-adv-x="1163" d="M111 487q0 222 136.5 369.5t350.5 147.5q82 0 152 -23t118 -62.5t84.5 -89.5t57.5 -107t31 -110.5t10 -105.5v-33h-840q6 -181 130 -293t318 -112q182 0 316 92v-97q-52 -39 -140 -63.5t-190 -24.5q-229 0 -381.5 144t-152.5 368zM213 559h737q0 43 -11.5 89t-38.5 94 t-66.5 85t-101 60.5t-136.5 23.5q-86 0 -158.5 -31t-119 -82t-74 -113t-31.5 -126zM330 1448h86q2 -78 52.5 -131t127.5 -53q76 0 126 53.5t52 130.5h86q0 -114 -78.5 -190t-185.5 -76q-110 0 -188 75.5t-78 190.5z" />
<glyph unicode="&#x116;" horiz-adv-x="1304" d="M213 0v1434h963v-95h-861v-520h711v-96h-711v-629h893v-94h-995zM627 1690q0 34 24 58t58 24t58 -24t24 -58t-24 -58t-58 -24t-58 24t-24 58z" />
<glyph unicode="&#x117;" horiz-adv-x="1163" d="M111 487q0 222 136.5 369.5t350.5 147.5q82 0 152 -23t118 -62.5t84.5 -89.5t57.5 -107t31 -110.5t10 -105.5v-33h-840q6 -181 130 -293t318 -112q182 0 316 92v-97q-52 -39 -140 -63.5t-190 -24.5q-229 0 -381.5 144t-152.5 368zM213 559h737q0 43 -11.5 89t-38.5 94 t-66.5 85t-101 60.5t-136.5 23.5q-86 0 -158.5 -31t-119 -82t-74 -113t-31.5 -126zM502 1321q0 34 24 58t58 24t58 -24t24 -58t-24 -58t-58 -24t-58 24t-24 58z" />
<glyph unicode="&#x118;" horiz-adv-x="1308" d="M213 0v1434h963v-95h-861v-520h711v-96h-711v-629h893v-94q-80 -87 -80 -180q0 -64 43 -101.5t111 -37.5q46 0 82 10v-74q-46 -12 -98 -12q-102 0 -160.5 56.5t-58.5 145.5q0 106 77 193h-911z" />
<glyph unicode="&#x119;" horiz-adv-x="1163" d="M111 487q0 222 136.5 369.5t350.5 147.5q82 0 152 -23t118 -62.5t84.5 -89.5t57.5 -107t31 -110.5t10 -105.5v-33h-840q6 -181 130 -293t318 -112q182 0 316 92v-97q-80 -87 -80 -180q0 -65 43 -102t111 -37q45 0 81 10v-73q-50 -13 -98 -13q-102 0 -160.5 57t-58.5 146 q0 65 35 133q-107 -29 -203 -29q-229 0 -381.5 144t-152.5 368zM213 559h737q0 43 -11.5 89t-38.5 94t-66.5 85t-101 60.5t-136.5 23.5q-86 0 -158.5 -31t-119 -82t-74 -113t-31.5 -126z" />
<glyph unicode="&#x11a;" horiz-adv-x="1304" d="M213 0v1434h963v-95h-861v-520h711v-96h-711v-629h893v-94h-995zM434 1829h107l166 -199l167 199h109l-223 -266h-105z" />
<glyph unicode="&#x11b;" horiz-adv-x="1163" d="M111 487q0 222 136.5 369.5t350.5 147.5q82 0 152 -23t118 -62.5t84.5 -89.5t57.5 -107t31 -110.5t10 -105.5v-33h-840q6 -181 130 -293t318 -112q182 0 316 92v-97q-52 -39 -140 -63.5t-190 -24.5q-229 0 -381.5 144t-152.5 368zM213 559h737q0 43 -11.5 89t-38.5 94 t-66.5 85t-101 60.5t-136.5 23.5q-86 0 -158.5 -31t-119 -82t-74 -113t-31.5 -126zM319 1448h107l166 -201l168 201h106l-221 -266h-106z" />
<glyph unicode="&#x11c;" horiz-adv-x="1601" d="M152 717q0 212 95 382t259.5 264.5t365.5 94.5q276 0 467 -147v-109q-202 158 -458 158q-131 0 -246 -48t-198.5 -132t-132 -204.5t-48.5 -260.5q0 -138 48.5 -258.5t131 -204.5t196 -132t240.5 -48q137 0 253 42.5t194 125.5v581h102v-620q-96 -104 -235.5 -165 t-313.5 -61q-149 0 -282 55.5t-229.5 153t-152.5 236t-56 297.5zM557 1563l221 266h107l221 -266h-109l-166 200l-165 -200h-109z" />
<glyph unicode="&#x11d;" horiz-adv-x="1292" d="M111 496q0 135 61 250t176.5 186.5t261.5 71.5q130 0 233 -52t167 -141v168h100v-934q0 -114 -40.5 -203.5t-111.5 -145.5t-164.5 -85t-203.5 -29q-99 0 -202 26.5t-175 65.5v101q78 -47 176.5 -74t194.5 -27q192 0 309 92.5t117 278.5v131q-64 -88 -166.5 -139 t-233.5 -51q-146 0 -261.5 71t-176.5 187t-61 252zM213 496q0 -180 119 -299t299 -119q125 0 228 65t151 170v361q-48 106 -151.5 171.5t-227.5 65.5q-180 0 -299 -119t-119 -296zM358 1180l224 268h106l221 -268h-108l-168 200l-166 -200h-109z" />
<glyph unicode="&#x11e;" horiz-adv-x="1601" d="M152 717q0 212 95 382t259.5 264.5t365.5 94.5q276 0 467 -147v-109q-202 158 -458 158q-131 0 -246 -48t-198.5 -132t-132 -204.5t-48.5 -260.5q0 -138 48.5 -258.5t131 -204.5t196 -132t240.5 -48q137 0 253 42.5t194 125.5v581h102v-620q-96 -104 -235.5 -165 t-313.5 -61q-149 0 -282 55.5t-229.5 153t-152.5 236t-56 297.5zM594 1833h88q2 -79 52 -132.5t126 -53.5t127 53.5t53 132.5h84q0 -114 -77 -191t-187 -77q-109 0 -185.5 76.5t-80.5 191.5z" />
<glyph unicode="&#x11f;" horiz-adv-x="1292" d="M111 496q0 135 61 250t176.5 186.5t261.5 71.5q130 0 233 -52t167 -141v168h100v-934q0 -114 -40.5 -203.5t-111.5 -145.5t-164.5 -85t-203.5 -29q-99 0 -202 26.5t-175 65.5v101q78 -47 176.5 -74t194.5 -27q192 0 309 92.5t117 278.5v131q-64 -88 -166.5 -139 t-233.5 -51q-146 0 -261.5 71t-176.5 187t-61 252zM213 496q0 -180 119 -299t299 -119q125 0 228 65t151 170v361q-48 106 -151.5 171.5t-227.5 65.5q-180 0 -299 -119t-119 -296zM358 1448h86q2 -78 53 -131t128 -53q76 0 126 53.5t52 130.5h86q0 -114 -78.5 -190 t-185.5 -76q-110 0 -188.5 75.5t-78.5 190.5z" />
<glyph unicode="&#x120;" horiz-adv-x="1601" d="M152 717q0 212 95 382t259.5 264.5t365.5 94.5q276 0 467 -147v-109q-202 158 -458 158q-131 0 -246 -48t-198.5 -132t-132 -204.5t-48.5 -260.5q0 -138 48.5 -258.5t131 -204.5t196 -132t240.5 -48q137 0 253 42.5t194 125.5v581h102v-620q-96 -104 -235.5 -165 t-313.5 -61q-149 0 -282 55.5t-229.5 153t-152.5 236t-56 297.5zM784 1690q0 34 24 58t58 24t58 -24t24 -58t-24 -58t-58 -24t-58 24t-24 58z" />
<glyph unicode="&#x121;" horiz-adv-x="1292" d="M111 496q0 135 61 250t176.5 186.5t261.5 71.5q130 0 233 -52t167 -141v168h100v-934q0 -114 -40.5 -203.5t-111.5 -145.5t-164.5 -85t-203.5 -29q-99 0 -202 26.5t-175 65.5v101q78 -47 176.5 -74t194.5 -27q192 0 309 92.5t117 278.5v131q-64 -88 -166.5 -139 t-233.5 -51q-146 0 -261.5 71t-176.5 187t-61 252zM213 496q0 -180 119 -299t299 -119q125 0 228 65t151 170v361q-48 106 -151.5 171.5t-227.5 65.5q-180 0 -299 -119t-119 -296zM549 1321q0 34 24 58t58 24t58 -24t24 -58t-24 -58t-58 -24t-58 24t-24 58z" />
<glyph unicode="&#x122;" horiz-adv-x="1601" d="M152 717q0 212 95 382t259.5 264.5t365.5 94.5q276 0 467 -147v-109q-202 158 -458 158q-131 0 -246 -48t-198.5 -132t-132 -204.5t-48.5 -260.5q0 -138 48.5 -258.5t131 -204.5t196 -132t240.5 -48q137 0 253 42.5t194 125.5v581h102v-620q-96 -104 -235.5 -165 t-313.5 -61q-149 0 -282 55.5t-229.5 153t-152.5 236t-56 297.5zM727 -451l113 347h110l-137 -347h-86z" />
<glyph unicode="&#x123;" horiz-adv-x="1292" d="M111 496q0 135 61 250t176.5 186.5t261.5 71.5q130 0 233 -52t167 -141v168h100v-934q0 -114 -40.5 -203.5t-111.5 -145.5t-164.5 -85t-203.5 -29q-99 0 -202 26.5t-175 65.5v101q78 -47 176.5 -74t194.5 -27q192 0 309 92.5t117 278.5v131q-64 -88 -166.5 -139 t-233.5 -51q-146 0 -261.5 71t-176.5 187t-61 252zM213 496q0 -180 119 -299t299 -119q125 0 228 65t151 170v361q-48 106 -151.5 171.5t-227.5 65.5q-180 0 -299 -119t-119 -296zM537 1133l137 346h86l-113 -346h-110z" />
<glyph unicode="&#x124;" horiz-adv-x="1556" d="M213 0v1434h102v-615h924v615h102v-1434h-102v723h-924v-723h-102zM502 1563l221 266h106l222 -266h-109l-166 200l-166 -200h-108z" />
<glyph unicode="&#x125;" horiz-adv-x="1234" d="M-43 1563l221 266h107l221 -266h-109l-166 200l-165 -200h-109zM178 0v1434h101v-623q65 81 172 137t241 56q188 0 283.5 -106.5t95.5 -301.5v-596h-100v575q0 82 -20.5 144.5t-51 97.5t-74 56.5t-82 28.5t-81.5 7q-112 0 -221 -67.5t-162 -155.5v-686h-101z" />
<glyph unicode="&#x126;" horiz-adv-x="1724" d="M104 1118v82h193v234h102v-234h926v234h102v-234h193v-82h-193v-1118h-102v723h-926v-723h-102v1118h-193zM399 819h926v299h-926v-299z" />
<glyph unicode="&#x127;" horiz-adv-x="1296" d="M33 1120v90h209v224h98v-224h281v-90h-281v-426q65 79 173.5 135t240.5 56q188 0 283.5 -106.5t95.5 -301.5v-477h-101v457q0 83 -20.5 145.5t-51 98t-73.5 57t-81.5 28.5t-82.5 7q-111 0 -220.5 -69t-162.5 -157v-567h-98v1120h-209z" />
<glyph unicode="&#x128;" horiz-adv-x="555" d="M-27 1599q5 92 46.5 146.5t111.5 54.5q37 0 80 -19t75 -42.5t70 -42.5t66 -19q43 0 61 30t25 85h78q-5 -93 -46.5 -149t-113.5 -56q-45 0 -100 32.5t-105 64.5t-84 32q-74 0 -86 -117h-78zM227 0v1434h103v-1434h-103z" />
<glyph unicode="&#x129;" horiz-adv-x="501" d="M-51 1225q5 93 47.5 147.5t112.5 54.5q47 0 101.5 -31t104 -62t82.5 -31q42 0 60.5 30.5t23.5 83.5h78q-3 -93 -44.5 -149t-111.5 -56q-47 0 -102 32t-105 63.5t-85 31.5q-72 0 -84 -114h-78zM209 0v979h100v-979h-100z" />
<glyph unicode="&#x12a;" horiz-adv-x="555" d="M39 1653v86h483v-86h-483zM227 0v1434h103v-1434h-103z" />
<glyph unicode="&#x12b;" horiz-adv-x="501" d="M14 1278v82h478v-82h-478zM209 0v979h100v-979h-100z" />
<glyph unicode="&#x12c;" horiz-adv-x="555" d="M12 1829h88q2 -79 52.5 -133t126.5 -54t127 54t53 133h84q0 -114 -77 -191t-187 -77q-109 0 -186 76.5t-81 191.5zM227 0v1434h103v-1434h-103z" />
<glyph unicode="&#x12d;" horiz-adv-x="501" d="M-12 1448h86q2 -78 52.5 -131t127.5 -53q76 0 126 53.5t52 130.5h86q0 -114 -78.5 -190t-185.5 -76q-110 0 -188 75.5t-78 190.5zM209 0v979h100v-979h-100z" />
<glyph unicode="&#x12e;" horiz-adv-x="555" d="M168 -193q0 105 78 193h-19v1434h103v-1434q-80 -87 -80 -180q0 -65 42.5 -102t110.5 -37q46 0 82 10v-74q-46 -12 -98 -12q-102 0 -160.5 56.5t-58.5 145.5z" />
<glyph unicode="&#x12f;" horiz-adv-x="522" d="M150 -193q0 106 77 193h-16v979h100v-979q-80 -87 -80 -180q0 -64 43 -101.5t111 -37.5q46 0 82 10v-74q-46 -12 -98 -12q-102 0 -160.5 56.5t-58.5 145.5zM178 1323q0 34 23 58t59 24q34 0 58 -24t24 -58q0 -35 -24 -57.5t-58 -22.5q-37 0 -59.5 22.5t-22.5 57.5z" />
<glyph unicode="&#x130;" horiz-adv-x="555" d="M195 1690q0 34 23.5 58t57.5 24t58 -24t24 -58t-24 -58t-58 -24t-57.5 24t-23.5 58zM227 0v1434h103v-1434h-103z" />
<glyph unicode="&#x131;" horiz-adv-x="518" d="M209 0v979h100v-979h-100z" />
<glyph unicode="&#x132;" horiz-adv-x="1230" d="M227 74v110q61 -53 148.5 -82.5t181.5 -29.5q375 0 375 377v985h102v-1000q0 -230 -121.5 -344.5t-343.5 -114.5q-202 0 -342 99zM227 506v928h103v-928h-103z" />
<glyph unicode="&#x134;" horiz-adv-x="1028" d="M72 72v110q126 -110 307 -110q352 0 352 370v992h103v-1008q0 -225 -115 -338t-324 -113q-191 0 -323 97zM506 1563l221 266h107l221 -266h-109l-166 200l-166 -200h-108z" />
<glyph unicode="&#x135;" horiz-adv-x="522" d="M-113 -287q66 -39 142 -39q182 0 182 209v1096h100v-1112q0 -79 -21.5 -136.5t-60 -88.5t-83.5 -45.5t-99 -14.5q-99 0 -160 37v94zM-12 1180l221 268h108l220 -268h-109l-166 200l-166 -200h-108z" />
<glyph unicode="&#x136;" horiz-adv-x="1312" d="M213 0v1434h102v-631l721 631h142l-748 -658l862 -776h-153l-824 743v-743h-102zM575 -451l113 347h111l-137 -347h-87z" />
<glyph unicode="&#x137;" horiz-adv-x="1060" d="M180 0v1434h101v-867l507 412h146l-547 -442l621 -537h-150l-577 498v-498h-101zM420 -451l112 347h111l-137 -347h-86z" />
<glyph unicode="&#x138;" horiz-adv-x="1062" d="M182 0v979h101v-412l508 412h145l-547 -442l621 -537h-150l-577 498v-498h-101z" />
<glyph unicode="&#x139;" horiz-adv-x="1214" d="M213 0v1434h102v-1340h830v-94h-932zM215 1563l197 266h133l-223 -266h-107z" />
<glyph unicode="&#x13a;" horiz-adv-x="567" d="M174 205v1229h100v-1207q0 -155 144 -155q54 0 102 28v-96q-52 -29 -133 -29q-40 0 -75 11t-67.5 35.5t-51.5 71.5t-19 112zM182 1563l197 266h133l-223 -266h-107z" />
<glyph unicode="&#x13b;" horiz-adv-x="1214" d="M213 0v1434h102v-1340h830v-94h-932zM547 -451l112 347h111l-137 -347h-86z" />
<glyph unicode="&#x13c;" horiz-adv-x="567" d="M174 205v1229h100v-1207q0 -155 144 -155q54 0 102 28v-96q-52 -29 -133 -29q-40 0 -75 11t-67.5 35.5t-51.5 71.5t-19 112zM211 -451l113 347h110l-137 -347h-86z" />
<glyph unicode="&#x13d;" horiz-adv-x="1265" d="M213 0v1434h102v-1340h830v-94h-932zM934 1085l113 347h110l-137 -347h-86z" />
<glyph unicode="&#x13e;" horiz-adv-x="714" d="M182 205v1229h101v-1207q0 -155 143 -155q54 0 102 28v-96q-52 -29 -133 -29q-40 0 -75 11t-67.5 35.5t-51.5 71.5t-19 112zM500 1085l112 347h111l-137 -347h-86z" />
<glyph unicode="&#x13f;" horiz-adv-x="1214" d="M213 0v1434h102v-1340h830v-94h-932zM981 778q0 34 24 58t58 24t58 -24t24 -58t-24 -58t-58 -24t-58 24t-24 58z" />
<glyph unicode="&#x140;" horiz-adv-x="759" d="M190 205v1229h101v-1207q0 -155 143 -155q55 0 103 28v-96q-52 -29 -134 -29q-40 0 -75 11t-67.5 35.5t-51.5 71.5t-19 112zM498 778q0 34 24 58t58 24t58 -24t24 -58t-24 -58t-58 -24t-58 24t-24 58z" />
<glyph unicode="&#x141;" horiz-adv-x="1230" d="M35 584v102l194 117v631h103v-570l325 197v-105l-325 -196v-666h829v-94h-932v698z" />
<glyph unicode="&#x142;" horiz-adv-x="776" d="M102 584v104l207 125v621h101v-562l206 127v-104l-206 -125v-543q0 -155 143 -155q54 0 102 28v-96q-52 -29 -133 -29q-40 0 -75 11t-67.5 35.5t-51.5 71.5t-19 112v504z" />
<glyph unicode="&#x143;" horiz-adv-x="1587" d="M213 0v1434h90l967 -1256v1256h102v-1434h-88l-969 1257v-1257h-102zM725 1563l197 266h133l-224 -266h-106z" />
<glyph unicode="&#x144;" horiz-adv-x="1239" d="M182 0v979h101v-168q65 81 172 137t241 56q188 0 283.5 -106.5t95.5 -301.5v-596h-100v575q0 82 -20.5 144.5t-51 97.5t-74 56.5t-82 28.5t-81.5 7q-112 0 -221 -67.5t-162 -155.5v-686h-101zM524 1182l197 266h133l-223 -266h-107z" />
<glyph unicode="&#x145;" horiz-adv-x="1587" d="M213 0v1434h90l967 -1256v1256h102v-1434h-88l-969 1257v-1257h-102zM670 -451l112 347h111l-137 -347h-86z" />
<glyph unicode="&#x146;" horiz-adv-x="1239" d="M182 0v979h101v-168q65 81 172 137t241 56q188 0 283.5 -106.5t95.5 -301.5v-596h-100v575q0 82 -20.5 144.5t-51 97.5t-74 56.5t-82 28.5t-81.5 7q-112 0 -221 -67.5t-162 -155.5v-686h-101zM485 -451l113 347h111l-138 -347h-86z" />
<glyph unicode="&#x147;" horiz-adv-x="1587" d="M213 0v1434h90l967 -1256v1256h102v-1434h-88l-969 1257v-1257h-102zM518 1829h107l166 -199l167 199h109l-223 -266h-105z" />
<glyph unicode="&#x148;" horiz-adv-x="1239" d="M182 0v979h101v-168q65 81 172 137t241 56q188 0 283.5 -106.5t95.5 -301.5v-596h-100v575q0 82 -20.5 144.5t-51 97.5t-74 56.5t-82 28.5t-81.5 7q-112 0 -221 -67.5t-162 -155.5v-686h-101zM356 1448h107l166 -201l168 201h106l-221 -266h-107z" />
<glyph unicode="&#x149;" horiz-adv-x="1368" d="M47 1085l113 347h110l-137 -347h-86zM311 0v979h101v-168q65 81 172 137t241 56q188 0 283.5 -106.5t95.5 -301.5v-596h-100v575q0 82 -20.5 144.5t-51 97.5t-74 56.5t-82 28.5t-81.5 7q-112 0 -221 -67.5t-162 -155.5v-686h-101z" />
<glyph unicode="&#x14a;" horiz-adv-x="1587" d="M213 0v1434h90l967 -1258v1258h102v-1459q0 -202 -93.5 -297.5t-262.5 -95.5q-57 0 -119.5 13t-105.5 36v109q94 -62 206 -62q273 0 273 316v22l-955 1244v-1260h-102z" />
<glyph unicode="&#x14b;" horiz-adv-x="1239" d="M182 0v979h101v-168q65 81 172 137t241 56q188 0 283.5 -106.5t95.5 -301.5v-723q0 -151 -73 -221t-191 -70q-99 0 -160 37v94q66 -39 142 -39q182 0 182 215v686q0 82 -20.5 144.5t-51 97.5t-74 56.5t-82 28.5t-81.5 7q-112 0 -221 -67.5t-162 -155.5v-686h-101z" />
<glyph unicode="&#x14c;" horiz-adv-x="1732" d="M152 717q0 209 93 379t256.5 266t364.5 96q149 0 281 -56.5t227 -154.5t150 -236t55 -294q0 -157 -55 -295t-150 -236t-227 -154.5t-281 -56.5q-201 0 -364.5 96t-256.5 266t-93 380zM256 717q0 -137 48 -257t129.5 -205t194 -134t238.5 -49t238.5 49t194 134t129 205 t47.5 257t-47.5 257t-129 204.5t-194 133t-238.5 48.5q-168 0 -307.5 -82.5t-221 -230.5t-81.5 -330zM627 1653v86h483v-86h-483z" />
<glyph unicode="&#x14d;" horiz-adv-x="1263" d="M111 487q0 102 37.5 195.5t104 165t165 114t213.5 42.5q116 0 215 -42.5t165.5 -114t104 -165t37.5 -195.5q0 -101 -37.5 -194t-104 -163.5t-165.5 -112.5t-215 -42q-115 0 -213.5 42t-165 112.5t-104 163.5t-37.5 194zM213 487q0 -177 120 -298t298 -121t299 121 t121 298q0 180 -121 302t-299 122t-298 -122t-120 -302zM393 1278v82h477v-82h-477z" />
<glyph unicode="&#x14e;" horiz-adv-x="1732" d="M152 717q0 209 93 379t256.5 266t364.5 96q149 0 281 -56.5t227 -154.5t150 -236t55 -294q0 -157 -55 -295t-150 -236t-227 -154.5t-281 -56.5q-201 0 -364.5 96t-256.5 266t-93 380zM256 717q0 -137 48 -257t129.5 -205t194 -134t238.5 -49t238.5 49t194 134t129 205 t47.5 257t-47.5 257t-129 204.5t-194 133t-238.5 48.5q-168 0 -307.5 -82.5t-221 -230.5t-81.5 -330zM600 1833h88q2 -79 52 -132.5t126 -53.5t127.5 53.5t53.5 132.5h83q0 -114 -77 -191t-187 -77q-109 0 -185.5 76.5t-80.5 191.5z" />
<glyph unicode="&#x14f;" horiz-adv-x="1263" d="M111 487q0 102 37.5 195.5t104 165t165 114t213.5 42.5q116 0 215 -42.5t165.5 -114t104 -165t37.5 -195.5q0 -101 -37.5 -194t-104 -163.5t-165.5 -112.5t-215 -42q-115 0 -213.5 42t-165 112.5t-104 163.5t-37.5 194zM213 487q0 -177 120 -298t298 -121t299 121 t121 298q0 180 -121 302t-299 122t-298 -122t-120 -302zM369 1452h86q2 -78 52.5 -131t127.5 -53q76 0 126 53.5t52 130.5h86q0 -114 -78.5 -190t-185.5 -76q-110 0 -188 75.5t-78 190.5z" />
<glyph unicode="&#x150;" horiz-adv-x="1732" d="M152 717q0 209 93 379t256.5 266t364.5 96q149 0 281 -56.5t227 -154.5t150 -236t55 -294q0 -157 -55 -295t-150 -236t-227 -154.5t-281 -56.5q-201 0 -364.5 96t-256.5 266t-93 380zM256 717q0 -137 48 -257t129.5 -205t194 -134t238.5 -49t238.5 49t194 134t129 205 t47.5 257t-47.5 257t-129 204.5t-194 133t-238.5 48.5q-168 0 -307.5 -82.5t-221 -230.5t-81.5 -330zM647 1563l197 266h135l-225 -266h-107zM950 1563l199 266h131l-223 -266h-107z" />
<glyph unicode="&#x151;" horiz-adv-x="1263" d="M111 487q0 102 37.5 195.5t104 165t165 114t213.5 42.5q116 0 215 -42.5t165.5 -114t104 -165t37.5 -195.5q0 -101 -37.5 -194t-104 -163.5t-165.5 -112.5t-215 -42q-115 0 -213.5 42t-165 112.5t-104 163.5t-37.5 194zM213 487q0 -177 120 -298t298 -121t299 121 t121 298q0 180 -121 302t-299 122t-298 -122t-120 -302zM414 1182l196 266h135l-225 -266h-106zM717 1182l198 266h132l-224 -266h-106z" />
<glyph unicode="&#x152;" horiz-adv-x="2336" d="M152 717q0 211 97.5 374t274 253t404.5 90h1278v-95h-852v-520h702v-96h-702v-629h884v-94h-1310q-228 0 -404.5 90t-274 253t-97.5 374zM258 717q0 -283 184 -453t504 -170h307v1245h-307q-321 0 -504.5 -169.5t-183.5 -452.5z" />
<glyph unicode="&#x153;" horiz-adv-x="2101" d="M111 487q0 102 37.5 195.5t104 165t165 114t213.5 42.5q159 0 281.5 -78.5t183.5 -206.5q57 132 171.5 208.5t268.5 76.5q82 0 152 -23t118 -62.5t84.5 -89.5t57.5 -107t31 -110.5t10 -105.5v-33h-840q6 -181 130 -293t318 -112q182 0 316 92v-97q-52 -39 -140 -63.5 t-190 -24.5q-163 0 -291.5 76t-191.5 209q-62 -130 -184 -207.5t-285 -77.5q-115 0 -213.5 42t-165 112.5t-104 163.5t-37.5 194zM213 487q0 -177 120 -298t298 -121t299 121t121 298q0 180 -121 302t-299 122t-298 -122t-120 -302zM1151 559h737q0 43 -11.5 89t-38.5 94 t-66 85t-101 60.5t-137 23.5q-86 0 -158.5 -31t-119 -82t-74 -113t-31.5 -126z" />
<glyph unicode="&#x154;" horiz-adv-x="1507" d="M213 0v1434h637q207 0 322.5 -103.5t115.5 -275.5q0 -155 -92.5 -256t-261.5 -121l469 -678h-119l-467 670h-502v-670h-102zM315 764h527q164 0 254 75t90 214q0 136 -90.5 211t-253.5 75h-527v-575zM588 1563l196 266h134l-224 -266h-106z" />
<glyph unicode="&#x155;" horiz-adv-x="712" d="M182 0v979h101v-203q54 94 161.5 161t233.5 67v-103q-140 0 -244.5 -77.5t-150.5 -180.5v-643h-101zM279 1182l196 266h133l-223 -266h-106z" />
<glyph unicode="&#x156;" horiz-adv-x="1507" d="M213 0v1434h637q207 0 322.5 -103.5t115.5 -275.5q0 -155 -92.5 -256t-261.5 -121l469 -678h-119l-467 670h-502v-670h-102zM315 764h527q164 0 254 75t90 214q0 136 -90.5 211t-253.5 75h-527v-575zM598 -451l113 347h110l-137 -347h-86z" />
<glyph unicode="&#x157;" horiz-adv-x="712" d="M68 -451l112 347h111l-137 -347h-86zM182 0v979h101v-203q54 94 161.5 161t233.5 67v-103q-140 0 -244.5 -77.5t-150.5 -180.5v-643h-101z" />
<glyph unicode="&#x158;" horiz-adv-x="1507" d="M213 0v1434h637q207 0 322.5 -103.5t115.5 -275.5q0 -155 -92.5 -256t-261.5 -121l469 -678h-119l-467 670h-502v-670h-102zM315 764h527q164 0 254 75t90 214q0 136 -90.5 211t-253.5 75h-527v-575zM420 1829h106l166 -199l168 199h109l-224 -266h-104z" />
<glyph unicode="&#x159;" horiz-adv-x="708" d="M143 1448h107l166 -201l168 201h106l-221 -266h-107zM178 0v979h101v-203q54 94 161.5 161t233.5 67v-103q-140 0 -244.5 -77.5t-150.5 -180.5v-643h-101z" />
<glyph unicode="&#x15a;" horiz-adv-x="1277" d="M98 129v117q80 -70 220 -122t296 -52q185 0 303.5 83t118.5 222q0 60 -25 108t-52 76t-97 58.5t-106.5 42t-134.5 39.5q-8 3 -13 4q-59 17 -96.5 29t-87 29.5t-81 34.5t-67.5 39.5t-57.5 48.5t-41 58t-28 72t-8.5 86q0 153 124.5 254.5t352.5 101.5q249 0 437 -121v-108 q-192 131 -432 131q-188 0 -283.5 -75t-95.5 -185q0 -53 24 -96.5t49 -69t95 -55t103.5 -40t134.5 -39.5q10 -3 16 -5q60 -17 99 -29.5t94 -34.5t91 -43t75.5 -53t62.5 -68t38 -84.5t15 -105.5q0 -127 -73.5 -220t-189 -137.5t-255.5 -44.5q-160 0 -301.5 45t-223.5 109z M518 1563l197 266h133l-223 -266h-107z" />
<glyph unicode="&#x15b;" horiz-adv-x="1026" d="M96 80v106q64 -44 172.5 -81t231.5 -37q141 0 224 50t83 138q0 34 -17 61.5t-42 46.5t-73 37t-89 29.5t-111 28.5q-63 15 -108 29.5t-93.5 37.5t-78 51t-49 68.5t-19.5 91.5q0 123 98.5 195t280.5 72q95 0 192.5 -25t161.5 -66v-102q-71 44 -163 72t-185 28 q-143 0 -214 -48t-71 -126q0 -29 10.5 -53.5t31.5 -42.5t45 -31.5t60 -25t66.5 -20t72.5 -18.5q4 -1 7 -1.5t6 -1.5q52 -12 81.5 -20t76 -23t73.5 -28.5t59.5 -36t50 -47t30 -59t12.5 -75.5q0 -129 -116 -204t-291 -75q-123 0 -233.5 31.5t-172.5 73.5zM397 1182l197 266 h133l-223 -266h-107z" />
<glyph unicode="&#x15c;" horiz-adv-x="1277" d="M98 129v117q80 -70 220 -122t296 -52q185 0 303.5 83t118.5 222q0 60 -25 108t-52 76t-97 58.5t-106.5 42t-134.5 39.5q-8 3 -13 4q-59 17 -96.5 29t-87 29.5t-81 34.5t-67.5 39.5t-57.5 48.5t-41 58t-28 72t-8.5 86q0 153 124.5 254.5t352.5 101.5q249 0 437 -121v-108 q-192 131 -432 131q-188 0 -283.5 -75t-95.5 -185q0 -53 24 -96.5t49 -69t95 -55t103.5 -40t134.5 -39.5q10 -3 16 -5q60 -17 99 -29.5t94 -34.5t91 -43t75.5 -53t62.5 -68t38 -84.5t15 -105.5q0 -127 -73.5 -220t-189 -137.5t-255.5 -44.5q-160 0 -301.5 45t-223.5 109z M362 1563l222 266h106l221 -266h-108l-166 200l-166 -200h-109z" />
<glyph unicode="&#x15d;" horiz-adv-x="1026" d="M96 80v106q64 -44 172.5 -81t231.5 -37q141 0 224 50t83 138q0 34 -17 61.5t-42 46.5t-73 37t-89 29.5t-111 28.5q-63 15 -108 29.5t-93.5 37.5t-78 51t-49 68.5t-19.5 91.5q0 123 98.5 195t280.5 72q95 0 192.5 -25t161.5 -66v-102q-71 44 -163 72t-185 28 q-143 0 -214 -48t-71 -126q0 -29 10.5 -53.5t31.5 -42.5t45 -31.5t60 -25t66.5 -20t72.5 -18.5q4 -1 7 -1.5t6 -1.5q52 -12 81.5 -20t76 -23t73.5 -28.5t59.5 -36t50 -47t30 -59t12.5 -75.5q0 -129 -116 -204t-291 -75q-123 0 -233.5 31.5t-172.5 73.5zM238 1180l223 268 h106l221 -268h-108l-168 200l-166 -200h-108z" />
<glyph unicode="&#x15e;" horiz-adv-x="1277" d="M98 129v117q80 -70 220 -122t296 -52q185 0 303.5 83t118.5 222q0 60 -25 108t-52 76t-97 58.5t-106.5 42t-134.5 39.5q-8 3 -13 4q-59 17 -96.5 29t-87 29.5t-81 34.5t-67.5 39.5t-57.5 48.5t-41 58t-28 72t-8.5 86q0 153 124.5 254.5t352.5 101.5q249 0 437 -121v-108 q-192 131 -432 131q-188 0 -283.5 -75t-95.5 -185q0 -53 24 -96.5t49 -69t95 -55t103.5 -40t134.5 -39.5q10 -3 16 -5q60 -17 99 -29.5t94 -34.5t91 -43t75.5 -53t62.5 -68t38 -84.5t15 -105.5q0 -115 -60.5 -202.5t-157 -134.5t-218.5 -60l-134 -242h-122l161 237 q-157 1 -294.5 46t-217.5 108z" />
<glyph unicode="&#x15f;" horiz-adv-x="1026" d="M96 80v106q64 -44 172.5 -81t231.5 -37q141 0 224 50t83 138q0 34 -17 61.5t-42 46.5t-73 37t-89 29.5t-111 28.5q-63 15 -108 29.5t-93.5 37.5t-78 51t-49 68.5t-19.5 91.5q0 123 98.5 195t280.5 72q95 0 192.5 -25t161.5 -66v-102q-71 44 -163 72t-185 28 q-143 0 -214 -48t-71 -126q0 -29 10.5 -53.5t31.5 -42.5t45 -31.5t60 -25t66.5 -20t72.5 -18.5q4 -1 7 -1.5t6 -1.5q52 -12 81.5 -20t76 -23t73.5 -28.5t59.5 -36t50 -47t30 -59t12.5 -75.5q0 -116 -94 -188t-244 -86l-133 -242h-123l162 237q-117 3 -220 33.5t-161 71.5z " />
<glyph unicode="&#x160;" horiz-adv-x="1277" d="M98 129v117q80 -70 220 -122t296 -52q185 0 303.5 83t118.5 222q0 60 -25 108t-52 76t-97 58.5t-106.5 42t-134.5 39.5q-8 3 -13 4q-59 17 -96.5 29t-87 29.5t-81 34.5t-67.5 39.5t-57.5 48.5t-41 58t-28 72t-8.5 86q0 153 124.5 254.5t352.5 101.5q249 0 437 -121v-108 q-192 131 -432 131q-188 0 -283.5 -75t-95.5 -185q0 -53 24 -96.5t49 -69t95 -55t103.5 -40t134.5 -39.5q10 -3 16 -5q60 -17 99 -29.5t94 -34.5t91 -43t75.5 -53t62.5 -68t38 -84.5t15 -105.5q0 -127 -73.5 -220t-189 -137.5t-255.5 -44.5q-160 0 -301.5 45t-223.5 109z M336 1829h106l166 -199l168 199h109l-223 -266h-105z" />
<glyph unicode="&#x161;" horiz-adv-x="1026" d="M96 80v106q64 -44 172.5 -81t231.5 -37q141 0 224 50t83 138q0 34 -17 61.5t-42 46.5t-73 37t-89 29.5t-111 28.5q-63 15 -108 29.5t-93.5 37.5t-78 51t-49 68.5t-19.5 91.5q0 123 98.5 195t280.5 72q95 0 192.5 -25t161.5 -66v-102q-71 44 -163 72t-185 28 q-143 0 -214 -48t-71 -126q0 -29 10.5 -53.5t31.5 -42.5t45 -31.5t60 -25t66.5 -20t72.5 -18.5q4 -1 7 -1.5t6 -1.5q52 -12 81.5 -20t76 -23t73.5 -28.5t59.5 -36t50 -47t30 -59t12.5 -75.5q0 -129 -116 -204t-291 -75q-123 0 -233.5 31.5t-172.5 73.5zM236 1448h106 l166 -201l168 201h106l-221 -266h-106z" />
<glyph unicode="&#x162;" horiz-adv-x="1271" d="M74 1339v95h1126v-95h-512v-1339l-145 -262h-123l166 262v1339h-512z" />
<glyph unicode="&#x163;" horiz-adv-x="866" d="M57 889v90h248v313h101v-313h360v-90h-360v-602q0 -120 42 -167.5t140 -47.5q82 0 164 45v-97q-48 -33 -144 -43l-133 -239h-123l164 239q-211 25 -211 283v629h-248z" />
<glyph unicode="&#x164;" horiz-adv-x="1271" d="M74 1339v95h1126v-95h-512v-1339h-102v1339h-512zM362 1829h107l166 -199l168 199h108l-223 -266h-104z" />
<glyph unicode="&#x165;" horiz-adv-x="1095" d="M82 889v90h248v313h100v-313h361v-90h-361v-602q0 -120 42 -167.5t140 -47.5q82 0 164 45v-97q-27 -19 -80.5 -32t-109.5 -13q-130 0 -193 76t-63 209v629h-248zM877 1085l112 347h111l-137 -347h-86z" />
<glyph unicode="&#x166;" horiz-adv-x="1271" d="M74 1339v95h1126v-95h-512v-526h301v-94h-301v-719h-102v719h-303v94h303v526h-512z" />
<glyph unicode="&#x167;" horiz-adv-x="866" d="M57 487v91h248v311h-248v90h248v313h101v-313h360v-90h-360v-311h360v-91h-360v-200q0 -120 42 -167.5t140 -47.5q82 0 164 45v-97q-27 -19 -81 -32t-110 -13q-130 0 -193 76t-63 209v227h-248z" />
<glyph unicode="&#x168;" horiz-adv-x="1529" d="M190 612v822h103v-822q0 -256 126.5 -398t346.5 -142t345.5 141.5t125.5 398.5v822h102v-822q0 -153 -42.5 -274.5t-119.5 -200.5t-181.5 -120.5t-229.5 -41.5q-259 0 -417.5 166.5t-158.5 470.5zM459 1599q5 92 46 146.5t111 54.5q37 0 80 -19t75 -42.5t70 -42.5t66 -19 q43 0 61 30t25 85h78q-5 -93 -46.5 -149t-113.5 -56q-36 0 -78.5 20t-75 44.5t-70 44.5t-64.5 20q-74 0 -86 -117h-78z" />
<glyph unicode="&#x169;" horiz-adv-x="1243" d="M166 383v596h100v-576q0 -333 309 -333q111 0 219.5 67.5t163.5 155.5v686h101v-979h-101v168q-65 -81 -172 -137t-241 -56q-188 0 -283.5 106.5t-95.5 301.5zM307 1225q5 93 47.5 147.5t112.5 54.5q37 0 80 -19.5t75.5 -42.5t69.5 -42.5t64 -19.5q42 0 60.5 30.5 t23.5 83.5h78q-3 -93 -44.5 -149t-111.5 -56q-37 0 -80.5 20t-75.5 43.5t-70.5 43.5t-66.5 20q-72 0 -84 -114h-78z" />
<glyph unicode="&#x16a;" horiz-adv-x="1529" d="M190 612v822h103v-822q0 -256 126.5 -398t346.5 -142t345.5 141.5t125.5 398.5v822h102v-822q0 -153 -42.5 -274.5t-119.5 -200.5t-181.5 -120.5t-229.5 -41.5q-259 0 -417.5 166.5t-158.5 470.5zM524 1653v86h484v-86h-484z" />
<glyph unicode="&#x16b;" horiz-adv-x="1243" d="M166 383v596h100v-576q0 -333 309 -333q111 0 219.5 67.5t163.5 155.5v686h101v-979h-101v168q-65 -81 -172 -137t-241 -56q-188 0 -283.5 106.5t-95.5 301.5zM373 1278v82h477v-82h-477z" />
<glyph unicode="&#x16c;" horiz-adv-x="1529" d="M190 612v822h103v-822q0 -256 126.5 -398t346.5 -142t345.5 141.5t125.5 398.5v822h102v-822q0 -153 -42.5 -274.5t-119.5 -200.5t-181.5 -120.5t-229.5 -41.5q-259 0 -417.5 166.5t-158.5 470.5zM498 1829h88q2 -79 52 -133t126 -54t127 54t53 133h84q0 -114 -77 -191 t-187 -77q-109 0 -185.5 76.5t-80.5 191.5z" />
<glyph unicode="&#x16d;" horiz-adv-x="1243" d="M166 383v596h100v-576q0 -333 309 -333q111 0 219.5 67.5t163.5 155.5v686h101v-979h-101v168q-65 -81 -172 -137t-241 -56q-188 0 -283.5 106.5t-95.5 301.5zM348 1448h86q2 -78 52.5 -131t127.5 -53q76 0 126.5 53.5t52.5 130.5h86q0 -114 -79 -190t-186 -76 q-110 0 -188 75.5t-78 190.5z" />
<glyph unicode="&#x16e;" horiz-adv-x="1529" d="M190 612v822h103v-822q0 -256 126.5 -398t346.5 -142t345.5 141.5t125.5 398.5v822h102v-822q0 -153 -42.5 -274.5t-119.5 -200.5t-181.5 -120.5t-229.5 -41.5q-259 0 -417.5 166.5t-158.5 470.5zM573 1698q0 79 57 135.5t138 56.5q76 0 132 -57t56 -135t-55.5 -134.5 t-132.5 -56.5q-81 0 -138 56.5t-57 134.5zM643 1698q0 -51 35.5 -86t89.5 -35q51 0 86 35t35 86q0 54 -34.5 88.5t-86.5 34.5q-54 0 -89.5 -34.5t-35.5 -88.5z" />
<glyph unicode="&#x16f;" horiz-adv-x="1243" d="M166 383v596h100v-576q0 -333 309 -333q111 0 219.5 67.5t163.5 155.5v686h101v-979h-101v168q-65 -81 -172 -137t-241 -56q-188 0 -283.5 106.5t-95.5 301.5zM420 1321q0 79 56.5 135.5t137.5 56.5q78 0 133.5 -57t55.5 -135t-55.5 -134.5t-133.5 -56.5q-81 0 -137.5 56 t-56.5 135zM489 1321q0 -51 36 -86t89 -35q51 0 87 35t36 86q0 53 -35.5 88t-87.5 35q-53 0 -89 -35t-36 -88z" />
<glyph unicode="&#x170;" horiz-adv-x="1529" d="M190 612v822h103v-822q0 -256 126.5 -398t346.5 -142t345.5 141.5t125.5 398.5v822h102v-822q0 -153 -42.5 -274.5t-119.5 -200.5t-181.5 -120.5t-229.5 -41.5q-259 0 -417.5 166.5t-158.5 470.5zM535 1563l196 266h135l-225 -266h-106zM838 1563l198 266h131l-223 -266 h-106z" />
<glyph unicode="&#x171;" horiz-adv-x="1243" d="M166 383v596h100v-576q0 -333 309 -333q111 0 219.5 67.5t163.5 155.5v686h101v-979h-101v168q-65 -81 -172 -137t-241 -56q-188 0 -283.5 106.5t-95.5 301.5zM389 1182l197 266h135l-225 -266h-107zM692 1182l199 266h131l-223 -266h-107z" />
<glyph unicode="&#x172;" horiz-adv-x="1529" d="M190 612v822h103v-822q0 -256 126.5 -398t346.5 -142t345.5 141.5t125.5 398.5v822h102v-822q0 -101 -17.5 -185.5t-46.5 -144.5t-71.5 -110t-86 -82t-97.5 -61q-75 -41 -109 -87.5t-34 -107.5q0 -65 42 -102t111 -37q43 0 82 10v-74q-46 -12 -100 -12q-100 0 -158.5 57 t-58.5 146t49 160q-44 -7 -78 -7q-259 0 -417.5 166.5t-158.5 470.5z" />
<glyph unicode="&#x173;" horiz-adv-x="1243" d="M166 383v596h100v-576q0 -333 309 -333q111 0 219.5 67.5t163.5 155.5v686h101v-979q-80 -87 -80 -180q0 -64 43 -101.5t111 -37.5q45 0 81 10v-74q-46 -12 -98 -12q-102 0 -160.5 56.5t-58.5 145.5q0 105 78 193h-17v168q-65 -81 -172 -137t-241 -56 q-188 0 -283.5 106.5t-95.5 301.5z" />
<glyph unicode="&#x174;" horiz-adv-x="2136" d="M90 1434h115l434 -1272l385 1276h86l389 -1276l432 1272h113l-498 -1442h-92l-385 1261l-391 -1261h-88zM791 1563l221 266h106l221 -266h-108l-166 200l-166 -200h-108z" />
<glyph unicode="&#x175;" horiz-adv-x="1675" d="M88 979h105l303 -832l295 836h86l297 -836l301 832h102l-358 -987h-86l-304 835l-294 -835h-89zM557 1180l223 268h107l221 -268h-109l-168 200l-165 -200h-109z" />
<glyph unicode="&#x176;" horiz-adv-x="1329" d="M53 1434h123l488 -674l491 674h117l-559 -768v-666h-103v664zM389 1563l221 266h107l221 -266h-109l-165 200l-166 -200h-109z" />
<glyph unicode="&#x177;" horiz-adv-x="1114" d="M53 979h113l389 -840l377 840h110l-493 -1090q-70 -153 -148 -230t-190 -77q-99 0 -143 31v94q56 -33 131 -33q51 0 92 21t78 70t66.5 104.5t70.5 148.5zM295 1180l223 268h107l221 -268h-109l-168 200l-166 -200h-108z" />
<glyph unicode="&#x178;" horiz-adv-x="1329" d="M53 1434h123l488 -674l491 674h117l-559 -768v-666h-103v664zM391 1690q0 32 23 54.5t55 22.5t55 -22.5t23 -54.5t-23 -55t-55 -23t-55 23t-23 55zM782 1690q0 32 23 54.5t55 22.5t55 -22.5t23 -54.5t-23 -55t-55 -23t-55 23t-23 55z" />
<glyph unicode="&#x179;" horiz-adv-x="1308" d="M109 0v74l923 1265h-868v95h1003v-74l-913 -1266h946v-94h-1091zM578 1563l196 266h133l-223 -266h-106z" />
<glyph unicode="&#x17a;" horiz-adv-x="1011" d="M78 0v68l676 821h-627v90h772v-72l-674 -817h707v-90h-854zM410 1182l196 266h133l-223 -266h-106z" />
<glyph unicode="&#x17b;" horiz-adv-x="1308" d="M109 0v74l923 1265h-868v95h1003v-74l-913 -1266h946v-94h-1091zM573 1690q0 34 24 58t58 24t58 -24t24 -58t-24 -58t-58 -24t-58 24t-24 58z" />
<glyph unicode="&#x17c;" horiz-adv-x="1011" d="M78 0v68l676 821h-627v90h772v-72l-674 -817h707v-90h-854zM424 1321q0 34 24 58t58 24t58 -24t24 -58t-24 -58t-58 -24t-58 24t-24 58z" />
<glyph unicode="&#x17d;" horiz-adv-x="1308" d="M109 0v74l923 1265h-868v95h1003v-74l-913 -1266h946v-94h-1091zM381 1829h106l166 -199l168 199h109l-223 -266h-105z" />
<glyph unicode="&#x17e;" horiz-adv-x="1011" d="M78 0v68l676 821h-627v90h772v-72l-674 -817h707v-90h-854zM229 1448h107l166 -201l168 201h106l-221 -266h-106z" />
<glyph unicode="&#x17f;" horiz-adv-x="653" d="M57 889v90h201v190q0 130 67.5 204.5t194.5 74.5q115 0 193 -41v-94q-80 43 -172 43q-89 0 -136 -54.5t-47 -154.5v-1147h-100v889h-201z" />
<glyph unicode="&#x192;" horiz-adv-x="976" d="M-166 -291q72 -35 152 -35q118 0 191.5 81.5t96.5 236.5l111 725h-283v90h295l41 258q30 190 118.5 286.5t250.5 96.5q103 0 170 -33v-96q-76 37 -154 37q-121 0 -190.5 -72.5t-95.5 -239.5l-37 -237h346v-90h-359l-116 -748q-17 -113 -61 -197.5t-123.5 -137 t-186.5 -52.5q-91 0 -166 35v92z" />
<glyph unicode="&#x218;" horiz-adv-x="1277" d="M98 129v117q80 -70 220 -122t296 -52q185 0 303.5 83t118.5 222q0 60 -25 108t-52 76t-97 58.5t-106.5 42t-134.5 39.5q-8 3 -13 4q-59 17 -96.5 29t-87 29.5t-81 34.5t-67.5 39.5t-57.5 48.5t-41 58t-28 72t-8.5 86q0 153 124.5 254.5t352.5 101.5q249 0 437 -121v-108 q-192 131 -432 131q-188 0 -283.5 -75t-95.5 -185q0 -53 24 -96.5t49 -69t95 -55t103.5 -40t134.5 -39.5q10 -3 16 -5q60 -17 99 -29.5t94 -34.5t91 -43t75.5 -53t62.5 -68t38 -84.5t15 -105.5q0 -127 -73.5 -220t-189 -137.5t-255.5 -44.5q-160 0 -301.5 45t-223.5 109z M481 -451l113 347h111l-138 -347h-86z" />
<glyph unicode="&#x219;" horiz-adv-x="1026" d="M96 80v106q64 -44 172.5 -81t231.5 -37q141 0 224 50t83 138q0 34 -17 61.5t-42 46.5t-73 37t-89 29.5t-111 28.5q-63 15 -108 29.5t-93.5 37.5t-78 51t-49 68.5t-19.5 91.5q0 123 98.5 195t280.5 72q95 0 192.5 -25t161.5 -66v-102q-71 44 -163 72t-185 28 q-143 0 -214 -48t-71 -126q0 -29 10.5 -53.5t31.5 -42.5t45 -31.5t60 -25t66.5 -20t72.5 -18.5q4 -1 7 -1.5t6 -1.5q52 -12 81.5 -20t76 -23t73.5 -28.5t59.5 -36t50 -47t30 -59t12.5 -75.5q0 -129 -116 -204t-291 -75q-123 0 -233.5 31.5t-172.5 73.5zM354 -451l113 347 h111l-138 -347h-86z" />
<glyph unicode="&#x21a;" horiz-adv-x="1271" d="M74 1339v95h1126v-95h-512v-1339h-102v1339h-512zM465 -451l113 347h110l-137 -347h-86z" />
<glyph unicode="&#x21b;" horiz-adv-x="866" d="M57 889v90h248v313h101v-313h360v-90h-360v-602q0 -120 42 -167.5t140 -47.5q82 0 164 45v-97q-27 -19 -81 -32t-110 -13q-130 0 -193 76t-63 209v629h-248zM397 -451l113 347h111l-138 -347h-86z" />
<glyph unicode="&#x2c6;" horiz-adv-x="1081" d="M266 1180l223 268h107l221 -268h-108l-168 200l-166 -200h-109z" />
<glyph unicode="&#x2c7;" horiz-adv-x="1060" d="M246 1448h106l166 -201l168 201h107l-222 -266h-106z" />
<glyph unicode="&#x2c9;" horiz-adv-x="1060" d="M193 1278v82h675v-82h-675z" />
<glyph unicode="&#x2d8;" horiz-adv-x="1046" d="M256 1448h86q2 -78 52.5 -131t127.5 -53q76 0 126 53.5t52 130.5h86q0 -114 -78.5 -190t-185.5 -76q-110 0 -188 75.5t-78 190.5z" />
<glyph unicode="&#x2d9;" horiz-adv-x="1097" d="M467 1321q0 34 24 58t58 24t58 -24t24 -58t-24 -58t-58 -24t-58 24t-24 58z" />
<glyph unicode="&#x2da;" horiz-adv-x="1087" d="M342 1321q0 79 57 135.5t138 56.5q78 0 133 -57t55 -135t-55 -134.5t-133 -56.5q-81 0 -138 56.5t-57 134.5zM412 1321q0 -51 36 -86t89 -35q51 0 86.5 35t35.5 86q0 53 -35 88t-87 35q-53 0 -89 -35t-36 -88z" />
<glyph unicode="&#x2db;" horiz-adv-x="1056" d="M412 -178q0 105 77 192h84q-79 -86 -79 -180q0 -65 42.5 -102t110.5 -37q46 0 82 10v-74q-46 -12 -98 -12q-102 0 -160.5 57t-58.5 146z" />
<glyph unicode="&#x2dc;" horiz-adv-x="1062" d="M225 1225q5 93 47.5 147.5t112.5 54.5q37 0 80 -19.5t75.5 -42.5t69.5 -42.5t64 -19.5q42 0 60.5 30.5t23.5 83.5h78q-3 -93 -44.5 -149t-111.5 -56q-37 0 -80.5 20t-75.5 43.5t-70.5 43.5t-66.5 20q-72 0 -84 -114h-78z" />
<glyph unicode="&#x2dd;" horiz-adv-x="1132" d="M266 1182l197 266h135l-225 -266h-107zM569 1182l199 266h131l-223 -266h-107z" />
<glyph unicode="&#x301;" horiz-adv-x="40" d="M-631 1182l197 266h133l-223 -266h-107z" />
<glyph unicode="&#x37e;" horiz-adv-x="460" d="M45 -311l156 493h123l-193 -493h-86zM156 868q0 34 24 58t58 24t57.5 -24t23.5 -58t-23.5 -58t-57.5 -24t-58 24t-24 58z" />
<glyph unicode="&#x394;" horiz-adv-x="1523" d="M68 0l649 1434h94l647 -1434h-1390zM213 94h1098l-547 1213z" />
<glyph unicode="&#x3a9;" horiz-adv-x="1648" d="M221 745q0 154 44.5 286.5t123 226.5t190.5 147t244 53q177 0 316 -91t215 -253.5t76 -368.5q0 -194 -74.5 -364.5t-190.5 -286.5h254v-94h-387v82q124 106 208.5 278.5t84.5 370.5q0 280 -142 454.5t-360 174.5q-217 0 -358 -174.5t-141 -454.5q0 -198 84 -369.5 t208 -279.5v-82h-389v94h254q-114 116 -187 286t-73 365z" />
<glyph unicode="&#x3bc;" horiz-adv-x="1259" d="M182 -410v1389h101v-576q0 -333 309 -333q111 0 219.5 67.5t163.5 155.5v686h100v-979h-100v168q-65 -81 -172.5 -137t-241.5 -56q-179 0 -278 105v-490h-101z" />
<glyph unicode="&#x3c0;" horiz-adv-x="1382" d="M90 889v90h1157v-90h-200v-619q0 -102 30.5 -145t98.5 -43q39 0 71 14v-86q-34 -20 -98 -20q-201 0 -201 252v647h-569v-889h-98v889h-191z" />
<glyph unicode="&#x401;" horiz-adv-x="1304" d="M213 0v1434h963v-95h-861v-520h711v-96h-711v-629h893v-94h-995zM436 1690q0 32 23 54.5t55 22.5t55 -22.5t23 -54.5t-23 -55t-55 -23t-55 23t-23 55zM827 1690q0 32 23 54.5t55 22.5t55 -22.5t23 -54.5t-23 -55t-55 -23t-55 23t-23 55z" />
<glyph unicode="&#x402;" horiz-adv-x="1531" d="M74 1339v95h973v-95h-566v-596q206 93 445 93q221 0 359 -123.5t138 -315.5q0 -187 -120 -304.5t-320 -117.5q-128 0 -231 39v99q91 -41 219 -41q161 0 255.5 89.5t94.5 237.5q0 138 -111 239t-303 101q-223 0 -426 -98v-641h-102v1339h-305z" />
<glyph unicode="&#x403;" horiz-adv-x="1222" d="M213 0v1434h934v-95h-832v-1339h-102zM584 1563l196 266h133l-223 -266h-106z" />
<glyph unicode="&#x404;" horiz-adv-x="1415" d="M154 717q0 157 55 294.5t150.5 235.5t229.5 154.5t285 56.5q232 0 404 -112v-109q-188 123 -406 123q-160 0 -294 -73.5t-217.5 -206.5t-94.5 -300h709v-96h-713q5 -175 88 -315.5t221 -218.5t303 -78q259 0 439 149v-112q-178 -134 -439 -134q-202 0 -367 96t-259 266 t-94 380z" />
<glyph unicode="&#x405;" horiz-adv-x="1275" d="M98 129v117q80 -70 220 -122t296 -52q185 0 303.5 83t118.5 222q0 60 -25 108t-52 76t-97 58.5t-106.5 42t-134.5 39.5q-8 3 -13 4q-59 17 -96.5 29t-87 29.5t-81 34.5t-67.5 39.5t-57.5 48.5t-41 58t-28 72t-8.5 86q0 153 124.5 254.5t352.5 101.5q249 0 437 -121v-108 q-192 131 -432 131q-188 0 -283.5 -75t-95.5 -185q0 -53 24 -96.5t49 -69t95 -55t103.5 -40t134.5 -39.5q10 -3 16 -5q60 -17 99 -29.5t94 -34.5t91 -43t75.5 -53t62.5 -68t38 -84.5t15 -105.5q0 -127 -73.5 -220t-189 -137.5t-255.5 -44.5q-160 0 -301.5 45t-223.5 109z " />
<glyph unicode="&#x406;" horiz-adv-x="555" d="M227 0v1434h103v-1434h-103z" />
<glyph unicode="&#x407;" horiz-adv-x="552" d="M2 1690q0 32 23 54.5t55 22.5t55 -22.5t23 -54.5t-23 -55t-55 -23t-55 23t-23 55zM225 0v1434h103v-1434h-103zM393 1690q0 32 23 54.5t55 22.5t55 -22.5t23 -54.5t-23 -55t-55 -23t-55 23t-23 55z" />
<glyph unicode="&#x408;" horiz-adv-x="1032" d="M76 72v110q126 -110 307 -110q352 0 352 370v992h103v-1008q0 -225 -115 -338t-324 -113q-191 0 -323 97z" />
<glyph unicode="&#x409;" horiz-adv-x="2285" d="M29 0v96q14 -2 55 -2q51 0 93 18.5t73.5 57.5t55.5 87.5t40 120t27 142t17.5 168t10 183t5.5 200.5l6 363h839v-560h428q236 0 368 -120.5t132 -315.5q0 -199 -131.5 -318.5t-368.5 -119.5h-530v1339h-635l-8 -340q-3 -143 -10 -254t-20.5 -219t-34.5 -186t-53.5 -145.5 t-76 -109t-102 -64.5t-131.5 -23q-35 0 -49 2zM1251 94h422q193 0 298.5 90t105.5 254t-105 253t-299 89h-422v-686z" />
<glyph unicode="&#x40a;" horiz-adv-x="2336" d="M213 0v1434h102v-560h883v560h102v-560h433q234 0 365.5 -120.5t131.5 -315.5q0 -199 -131 -318.5t-366 -119.5h-535v780h-883v-780h-102zM1300 94h422q196 0 301 89.5t105 254.5t-105 253.5t-301 88.5h-422v-686z" />
<glyph unicode="&#x40b;" horiz-adv-x="1576" d="M74 1339v95h973v-95h-566v-585q219 82 451 82q118 0 205 -21t152.5 -69.5t98.5 -132.5t33 -205v-408h-102v375q0 106 -23.5 175.5t-76 111.5t-129 59.5t-191.5 17.5q-215 0 -418 -88v-651h-102v1339h-305z" />
<glyph unicode="&#x40c;" horiz-adv-x="1312" d="M213 0v1434h102v-631l721 631h142l-748 -658l862 -776h-153l-824 743v-743h-102zM565 1563l197 266h133l-223 -266h-107z" />
<glyph unicode="&#x40e;" horiz-adv-x="1300" d="M55 1434h117l518 -934l430 934h113l-528 -1133q-84 -179 -167.5 -252.5t-189.5 -73.5q-90 0 -164 27v98q69 -28 148 -28q49 0 90 18.5t75.5 56t62 83.5t56.5 110l23 49zM324 1839h92q0 -94 63 -152.5t170 -58.5q103 0 166.5 59t63.5 152h90q0 -131 -91.5 -213t-228.5 -82 q-148 0 -235.5 80.5t-89.5 214.5z" />
<glyph unicode="&#x40f;" horiz-adv-x="1517" d="M213 0v1434h102v-1340h885v1340h103v-1434h-498v-328h-98v328h-494z" />
<glyph unicode="&#x410;" horiz-adv-x="1523" d="M68 0l649 1442h94l647 -1442h-106l-189 418h-801l-188 -418h-106zM399 508h727l-362 801z" />
<glyph unicode="&#x411;" horiz-adv-x="1429" d="M213 0v1434h961v-95h-859v-467h473q234 0 366 -120.5t132 -315.5q0 -197 -131.5 -316.5t-366.5 -119.5h-575zM315 94h465q192 0 297 89t105 253q0 163 -105 251.5t-297 88.5h-465v-682z" />
<glyph unicode="&#x412;" horiz-adv-x="1474" d="M213 0v1434h604q191 0 297.5 -93t106.5 -254q0 -115 -51.5 -193t-145.5 -114q153 -23 239.5 -124t86.5 -259q0 -181 -122.5 -289t-340.5 -108h-674zM315 94h555q177 0 273 81.5t96 232.5q0 149 -96 230t-273 81h-555v-625zM315 809h490q151 0 233 68.5t82 195.5 t-82 196.5t-233 69.5h-490v-530z" />
<glyph unicode="&#x413;" horiz-adv-x="1222" d="M213 0v1434h934v-95h-832v-1339h-102z" />
<glyph unicode="&#x414;" horiz-adv-x="1579" d="M37 94h133q96 132 152 274t87 365t31 547v154h846v-1340h223v-422h-98v328h-1278v-328h-96v422zM289 94h895v1245h-641v-96q0 -401 -59 -680t-195 -469z" />
<glyph unicode="&#x415;" horiz-adv-x="1304" d="M213 0v1434h963v-95h-861v-520h711v-96h-711v-629h893v-94h-995z" />
<glyph unicode="&#x416;" horiz-adv-x="1939" d="M53 0l760 760l-680 674h135l647 -648v648h103v-652l651 652h135l-680 -674l762 -760h-139l-729 725v-725h-103v723l-725 -723h-137z" />
<glyph unicode="&#x417;" horiz-adv-x="1259" d="M98 80v106q91 -50 213 -82t240 -32q221 0 349 92.5t128 247.5q0 139 -117.5 231t-312.5 92h-176v94h186q164 0 258.5 72t94.5 199q0 83 -51 143t-135.5 88.5t-192.5 28.5q-213 0 -416 -94v100q204 92 420 92q206 0 340.5 -95.5t134.5 -260.5q0 -70 -25.5 -128.5 t-66.5 -95t-81.5 -58.5t-80.5 -32q56 -14 109 -42.5t104.5 -73.5t83 -114t31.5 -152q0 -188 -153 -309.5t-413 -121.5q-263 0 -471 105z" />
<glyph unicode="&#x418;" horiz-adv-x="1581" d="M213 0v1434h102v-1262l959 1262h92v-1434h-102v1266l-963 -1266h-88z" />
<glyph unicode="&#x419;" horiz-adv-x="1581" d="M213 0v1434h102v-1262l959 1262h92v-1434h-102v1266l-963 -1266h-88zM465 1839h92q0 -94 63.5 -152.5t170.5 -58.5q103 0 166 59t63 152h90q0 -131 -91 -213t-228 -82q-148 0 -236 80.5t-90 214.5z" />
<glyph unicode="&#x41a;" horiz-adv-x="1312" d="M213 0v1434h102v-631l721 631h142l-748 -658l862 -776h-153l-824 743v-743h-102z" />
<glyph unicode="&#x41b;" horiz-adv-x="1484" d="M29 0v96q18 -2 55 -2q51 0 92.5 18.5t72.5 57.5t54.5 87t40 119t27 141.5t17 167t10 181.5t5.5 199l9 369h860v-1434h-103v1339h-655l-10 -340q-4 -145 -11 -254.5t-21 -218.5t-34.5 -186t-52.5 -145t-74.5 -109t-101 -64.5t-131.5 -23.5q-35 0 -49 2z" />
<glyph unicode="&#x41c;" horiz-adv-x="1734" d="M213 0v1434h104l551 -725l551 725h101v-1434h-103v1276l-516 -680h-65l-521 680v-1276h-102z" />
<glyph unicode="&#x41d;" horiz-adv-x="1556" d="M213 0v1434h102v-615h924v615h102v-1434h-102v723h-924v-723h-102z" />
<glyph unicode="&#x41e;" horiz-adv-x="1732" d="M152 717q0 209 93 379t256.5 266t364.5 96q149 0 281 -56.5t227 -154.5t150 -236t55 -294q0 -157 -55 -295t-150 -236t-227 -154.5t-281 -56.5q-201 0 -364.5 96t-256.5 266t-93 380zM256 717q0 -137 48 -257t129.5 -205t194 -134t238.5 -49t238.5 49t194 134t129 205 t47.5 257t-47.5 257t-129 204.5t-194 133t-238.5 48.5q-168 0 -307.5 -82.5t-221 -230.5t-81.5 -330z" />
<glyph unicode="&#x41f;" horiz-adv-x="1527" d="M213 0v1434h1100v-1434h-103v1339h-895v-1339h-102z" />
<glyph unicode="&#x420;" horiz-adv-x="1361" d="M213 0v1434h598q211 0 327.5 -105.5t116.5 -281.5t-116.5 -283t-327.5 -107h-496v-657h-102zM315 752h486q169 0 260.5 77t91.5 218q0 140 -91.5 216t-260.5 76h-486v-587z" />
<glyph unicode="&#x421;" horiz-adv-x="1419" d="M152 717q0 212 95 382t260 264.5t367 94.5q238 0 410 -112v-109q-191 123 -407 123q-171 0 -313 -82t-225 -230t-83 -331t83 -331.5t225.5 -231t314.5 -82.5q250 0 438 149v-112q-181 -134 -443 -134q-150 0 -283.5 55.5t-230 153t-152.5 236t-56 297.5z" />
<glyph unicode="&#x422;" horiz-adv-x="1271" d="M74 1339v95h1126v-95h-512v-1339h-102v1339h-512z" />
<glyph unicode="&#x423;" horiz-adv-x="1292" d="M49 1434h117l518 -934l430 934h113l-529 -1133q-84 -179 -167 -252.5t-189 -73.5q-91 0 -164 27v98q69 -28 148 -28q49 0 90 18.5t75.5 56t62 83.5t56.5 110l23 49z" />
<glyph unicode="&#x424;" horiz-adv-x="1849" d="M152 715q0 96 26 184t82.5 167.5t139.5 138.5t204.5 93.5t269.5 34.5v131h103v-131q147 0 268.5 -34t204 -92.5t139 -137.5t82 -166.5t25.5 -183.5t-25.5 -183.5t-82 -166t-139 -136.5t-204 -92.5t-268.5 -36.5v-141h-103v141q-148 2 -269.5 36t-204.5 91t-139.5 134.5 t-82.5 165t-26 184.5zM256 719q0 -76 19.5 -147.5t66 -140t115.5 -119t176.5 -81.5t240.5 -32v1040q-133 0 -240.5 -31t-176.5 -81.5t-115.5 -119t-66 -140t-19.5 -148.5zM977 199q133 1 239.5 32t175.5 81.5t114.5 119t65 139.5t19.5 148t-19.5 148.5t-65 140t-114.5 119 t-175.5 81.5t-239.5 31v-1040z" />
<glyph unicode="&#x425;" horiz-adv-x="1431" d="M76 0l577 778l-485 656h123l428 -572l426 572h123l-490 -654l584 -780h-125l-520 696l-522 -696h-119z" />
<glyph unicode="&#x426;" horiz-adv-x="1595" d="M213 0v1434h102v-1340h885v1340h103v-1340h223v-422h-96v328h-1217z" />
<glyph unicode="&#x427;" horiz-adv-x="1411" d="M152 1024v410h102v-379q0 -106 24 -176.5t77 -112.5t129 -59t190 -17q206 0 420 88v656h102v-1434h-102v676q-221 -84 -449 -84q-118 0 -205 21t-153.5 69.5t-100.5 133.5t-34 208z" />
<glyph unicode="&#x428;" horiz-adv-x="2072" d="M213 0v1434h102v-1340h670v1340h102v-1340h670v1340h103v-1434h-1647z" />
<glyph unicode="&#x429;" horiz-adv-x="2154" d="M213 0v1434h102v-1340h670v1340h102v-1340h670v1340h103v-1340h225v-422h-98v328h-1774z" />
<glyph unicode="&#x42a;" horiz-adv-x="1609" d="M29 1339v95h506v-560h466q236 0 369 -120.5t133 -315.5q0 -199 -132.5 -318.5t-369.5 -119.5h-567v1339h-405zM535 94h458q195 0 300.5 90t105.5 254t-105.5 253t-300.5 89h-458v-686z" />
<glyph unicode="&#x42b;" horiz-adv-x="1785" d="M213 0v1434h102v-560h418q236 0 368 -120.5t132 -315.5q0 -199 -131.5 -318.5t-368.5 -119.5h-520zM315 94h412q193 0 298 90t105 254t-104.5 253t-298.5 89h-412v-686zM1468 0v1434h103v-1434h-103z" />
<glyph unicode="&#x42c;" horiz-adv-x="1388" d="M213 0v1434h102v-560h467q236 0 368 -120.5t132 -315.5q0 -199 -131.5 -318.5t-368.5 -119.5h-569zM315 94h461q193 0 298.5 90t105.5 254t-105 253t-299 89h-461v-686z" />
<glyph unicode="&#x42d;" horiz-adv-x="1415" d="M102 109v112q180 -149 439 -149q165 0 303 78t221 218.5t88 315.5h-713v96h709q-11 167 -94.5 300t-217.5 206.5t-294 73.5q-218 0 -406 -123v109q172 112 404 112q151 0 285 -56.5t229.5 -154.5t151 -236t55.5 -294q0 -157 -55.5 -295t-151 -236t-229 -154.5 t-285.5 -56.5q-261 0 -439 134z" />
<glyph unicode="&#x42e;" horiz-adv-x="2123" d="M213 0v1434h102v-652h328q13 192 103 346.5t236.5 242t322.5 87.5q141 0 265 -57t212.5 -155t139 -235.5t50.5 -293.5t-50.5 -293.5t-138.5 -236t-212.5 -155.5t-265.5 -57q-138 0 -259 54t-208.5 148.5t-140 226.5t-56.5 284h-326v-688h-102zM743 717q0 -144 45 -266 t122 -204.5t179.5 -128.5t215.5 -46q115 0 217.5 46t179 128.5t121.5 204.5t45 266t-45 266t-121.5 203.5t-179 127.5t-217.5 46q-113 0 -215.5 -46t-179.5 -127.5t-122 -203.5t-45 -266z" />
<glyph unicode="&#x42f;" horiz-adv-x="1505" d="M104 0l467 678q-169 20 -260.5 120.5t-91.5 256.5q0 174 114.5 276.5t323.5 102.5h633v-1434h-102v670h-502l-465 -670h-117zM319 1053q0 -139 90.5 -214t254.5 -75h524v575h-524q-163 0 -254 -75t-91 -211z" />
<glyph unicode="&#x430;" horiz-adv-x="1208" d="M98 297q0 144 116.5 231.5t289.5 87.5q206 0 379 -104v125q0 140 -90.5 207t-253.5 67q-95 0 -182 -31t-148 -73v100q149 97 348 97q191 0 308.5 -89.5t117.5 -269.5v-430q0 -64 28 -100.5t76 -36.5q34 0 58 12v-82q-26 -16 -82 -16q-67 0 -115.5 41.5t-54.5 126.5 q-166 -185 -418 -185q-98 0 -182 35t-139.5 110t-55.5 177zM203 299q0 -60 25.5 -106t68.5 -72.5t95.5 -39.5t111.5 -13q119 0 219 56t160 134v160q-65 44 -158 77t-195 33q-154 0 -240.5 -62t-86.5 -167z" />
<glyph unicode="&#x431;" horiz-adv-x="1257" d="M131 629q0 365 166 543q117 125 357 195q103 30 386 87v-98q-49 -11 -152 -33t-188 -41q-91 -21 -160.5 -51t-129 -78t-97.5 -112.5t-60 -155t-24 -205.5q62 119 180.5 188.5t278.5 69.5q193 0 326 -131t133 -332q0 -109 -39 -203t-105 -158.5t-155.5 -101.5t-188.5 -37 q-246 0 -387 174.5t-141 479.5zM238 549q12 -224 121.5 -352.5t302.5 -128.5q102 0 189.5 49t141.5 142.5t54 211.5q0 169 -111 271t-268 102q-77 0 -148.5 -26t-125 -69t-93.5 -94t-63 -106z" />
<glyph unicode="&#x432;" horiz-adv-x="1171" d="M182 0v979h502q139 0 214 -68t75 -180q0 -78 -33 -134.5t-94 -82.5q192 -55 192 -254q0 -119 -82 -189.5t-233 -70.5h-541zM283 90h422q110 0 170.5 47t60.5 137q0 89 -61 137t-170 48h-422v-369zM283 549h374q104 0 158.5 43t54.5 127q0 83 -55 126.5t-158 43.5h-374 v-340z" />
<glyph unicode="&#x433;" horiz-adv-x="985" d="M182 0v979h719v-90h-618v-889h-101z" />
<glyph unicode="&#x434;" horiz-adv-x="1300" d="M43 90h121q184 231 184 766v123h696v-889h189v-393h-98v303h-994v-303h-98v393zM279 90h667v799h-500v-70q0 -482 -167 -729z" />
<glyph unicode="&#x435;" horiz-adv-x="1163" d="M111 487q0 222 136.5 369.5t350.5 147.5q82 0 152 -23t118 -62.5t84.5 -89.5t57.5 -107t31 -110.5t10 -105.5v-33h-840q6 -181 130 -293t318 -112q182 0 316 92v-97q-52 -39 -140 -63.5t-190 -24.5q-229 0 -381.5 144t-152.5 368zM213 559h737q0 43 -11.5 89t-38.5 94 t-66.5 85t-101 60.5t-136.5 23.5q-86 0 -158.5 -31t-119 -82t-74 -113t-31.5 -126z" />
<glyph unicode="&#x436;" horiz-adv-x="1490" d="M57 0l541 524l-489 455h131l456 -430v430h99v-428l456 428h131l-487 -455l539 -524h-138l-501 489v-489h-99v492l-501 -492h-138z" />
<glyph unicode="&#x437;" horiz-adv-x="1058" d="M131 45v98q154 -75 342 -75q160 0 257 56t97 155q0 94 -81.5 144t-217.5 50h-166v92h166q131 0 195.5 49.5t64.5 118.5q0 88 -82 133t-219 45q-168 0 -325 -67v98q148 62 342 62q165 0 275 -70t110 -186q0 -49 -16.5 -88.5t-46 -65.5t-56.5 -41.5t-61 -28.5 q221 -65 221 -252q0 -135 -121 -216t-326 -81q-208 0 -352 70z" />
<glyph unicode="&#x438;" horiz-adv-x="1249" d="M182 0v979h101v-829l690 829h92v-979h-100v827l-689 -827h-94z" />
<glyph unicode="&#x439;" horiz-adv-x="1249" d="M182 0v979h101v-829l690 829h92v-979h-100v827l-689 -827h-94zM301 1438h92q0 -93 61.5 -151t168.5 -58q100 0 162.5 58.5t62.5 150.5h90q0 -128 -91 -210.5t-224 -82.5q-146 0 -233 80.5t-89 212.5z" />
<glyph unicode="&#x43a;" horiz-adv-x="1062" d="M182 0v979h101v-412l508 412h145l-547 -442l621 -537h-150l-577 498v-498h-101z" />
<glyph unicode="&#x43b;" horiz-adv-x="1206" d="M41 0v92q16 -2 41 -2q41 0 74.5 18t57 47.5t41 75.5t28.5 93t18.5 108.5t10.5 114.5t5 119l9 313h696v-979h-100v889h-498l-6 -205q-2 -80 -6 -141.5t-14 -136.5t-25 -130t-40.5 -110t-59 -90t-83 -56.5t-110.5 -21.5q-25 0 -39 2z" />
<glyph unicode="&#x43c;" horiz-adv-x="1417" d="M182 0v979h97l428 -487l430 487h96v-979h-100v838l-408 -463h-37l-405 463v-838h-101z" />
<glyph unicode="&#x43d;" horiz-adv-x="1239" d="M182 0v979h101v-430h671v430h101v-979h-101v459h-671v-459h-101z" />
<glyph unicode="&#x43e;" horiz-adv-x="1263" d="M111 487q0 102 37.5 195.5t104 165t165 114t213.5 42.5q116 0 215 -42.5t165.5 -114t104 -165t37.5 -195.5q0 -101 -37.5 -194t-104 -163.5t-165.5 -112.5t-215 -42q-115 0 -213.5 42t-165 112.5t-104 163.5t-37.5 194zM213 487q0 -177 120 -298t298 -121t299 121 t121 298q0 180 -121 302t-299 122t-298 -122t-120 -302z" />
<glyph unicode="&#x43f;" horiz-adv-x="1222" d="M182 0v979h856v-979h-100v889h-655v-889h-101z" />
<glyph unicode="&#x440;" horiz-adv-x="1292" d="M182 -410v1389h101v-170q65 89 167.5 142t233.5 53q146 0 261.5 -72.5t176 -189t60.5 -253.5q0 -101 -36 -194t-99.5 -164t-158 -113.5t-204.5 -42.5q-131 0 -233.5 53.5t-167.5 143.5v-582h-101zM283 309q48 -105 153 -173t228 -68q178 0 296.5 121t118.5 300 t-118.5 300.5t-296.5 121.5q-123 0 -228 -67t-153 -172v-363z" />
<glyph unicode="&#x441;" horiz-adv-x="1073" d="M111 489q0 141 65 258.5t184.5 187t268.5 69.5q166 0 295 -76v-97q-138 80 -283 80q-183 0 -305.5 -121.5t-122.5 -302.5q0 -180 122.5 -299.5t305.5 -119.5q170 0 301 92v-99q-133 -86 -315 -86q-148 0 -267 69.5t-184 186.5t-65 258z" />
<glyph unicode="&#x442;" horiz-adv-x="958" d="M59 889v90h840v-90h-371v-889h-98v889h-371z" />
<glyph unicode="&#x443;" horiz-adv-x="1114" d="M53 979h113l389 -840l377 840h110l-493 -1090q-70 -153 -148 -230t-190 -77q-99 0 -143 31v94q56 -33 131 -33q51 0 92 21t78 70t66.5 104.5t70.5 148.5z" />
<glyph unicode="&#x444;" horiz-adv-x="1466" d="M111 487q0 231 153 367.5t418 142.5v437h100v-437q265 -6 419.5 -142.5t154.5 -367.5q0 -227 -155.5 -365.5t-418.5 -139.5v-385h-100v385q-262 1 -416.5 140t-154.5 365zM209 487q0 -102 37.5 -182.5t103 -130.5t150 -76t182.5 -26v835q-98 0 -182.5 -26.5t-150 -77 t-103 -132t-37.5 -184.5zM782 72q133 0 237.5 44t170 139.5t65.5 231.5q0 103 -37.5 184.5t-102.5 132t-150 77t-183 26.5v-835z" />
<glyph unicode="&#x445;" horiz-adv-x="1116" d="M74 0l428 520l-373 459h123l311 -381l311 381h119l-370 -455l426 -524h-125l-365 446l-366 -446h-119z" />
<glyph unicode="&#x446;" horiz-adv-x="1286" d="M182 0v979h101v-889h647v889h100v-889h189v-393h-99v303h-938z" />
<glyph unicode="&#x447;" horiz-adv-x="1140" d="M131 729v250h100v-242q0 -165 74.5 -231t241.5 -66q65 0 153.5 20t155.5 54v465h100v-979h-100v416q-160 -68 -336 -68q-196 0 -292.5 87.5t-96.5 293.5z" />
<glyph unicode="&#x448;" horiz-adv-x="1667" d="M182 0v979h101v-889h499v889h101v-889h499v889h101v-979h-1301z" />
<glyph unicode="&#x449;" horiz-adv-x="1738" d="M182 0v979h101v-889h499v889h101v-889h499v889h101v-889h188v-393h-92v303h-1397z" />
<glyph unicode="&#x44a;" horiz-adv-x="1290" d="M33 889v90h405v-352h383q170 0 264.5 -84t94.5 -228q0 -141 -93.5 -228t-263.5 -87h-483v889h-307zM438 90h369q129 0 199.5 58.5t70.5 164.5q0 107 -70.5 165.5t-199.5 58.5h-369v-447z" />
<glyph unicode="&#x44b;" horiz-adv-x="1431" d="M182 0v979h101v-352h325q169 0 264 -84t95 -228q0 -141 -93.5 -228t-263.5 -87h-428zM283 90h309q131 0 201.5 58.5t70.5 164.5q0 108 -70 166t-202 58h-309v-447zM1147 0v979h100v-979h-100z" />
<glyph unicode="&#x44c;" horiz-adv-x="1134" d="M182 0v979h101v-352h379q171 0 266.5 -84t95.5 -228q0 -141 -93.5 -228t-262.5 -87h-486zM283 90h366q129 0 201 58.5t72 164.5q0 107 -72 165.5t-201 58.5h-366v-447z" />
<glyph unicode="&#x44d;" horiz-adv-x="1069" d="M129 61v99q131 -92 301 -92q173 0 293.5 107.5t132.5 273.5h-514v90h514q-19 164 -137 268t-289 104q-142 0 -280 -77v94q123 76 292 76q148 0 266.5 -69.5t183 -187t64.5 -258.5t-64.5 -258t-183 -186.5t-266.5 -69.5q-180 0 -313 86z" />
<glyph unicode="&#x44e;" horiz-adv-x="1622" d="M182 0v979h101v-442h270q14 201 148 334t329 133q208 0 344.5 -148t136.5 -369q0 -219 -136.5 -365.5t-344.5 -146.5q-197 0 -331 133.5t-148 337.5h-268v-446h-101zM645 487q0 -179 109 -299t276 -120q165 0 273 120.5t108 298.5q0 182 -108 303t-273 121 q-168 0 -276.5 -120.5t-108.5 -303.5z" />
<glyph unicode="&#x44f;" horiz-adv-x="1163" d="M106 0l308 399q-131 13 -200 89t-69 200q0 130 87.5 210.5t250.5 80.5h496v-979h-100v385h-359l-295 -385h-119zM248 682q0 -98 65 -152.5t185 -54.5h381v414h-381q-121 0 -185.5 -54t-64.5 -153z" />
<glyph unicode="&#x451;" horiz-adv-x="1163" d="M111 487q0 222 136.5 369.5t350.5 147.5q82 0 152 -23t118 -62.5t84.5 -89.5t57.5 -107t31 -110.5t10 -105.5v-33h-840q6 -181 130 -293t318 -112q182 0 316 92v-97q-52 -39 -140 -63.5t-190 -24.5q-229 0 -381.5 144t-152.5 368zM213 559h737q0 43 -11.5 89t-38.5 94 t-66.5 85t-101 60.5t-136.5 23.5q-86 0 -158.5 -31t-119 -82t-74 -113t-31.5 -126zM324 1274q0 32 22.5 55t54.5 23t55 -23t23 -55t-23 -55t-55 -23t-54.5 23t-22.5 55zM715 1274q0 32 23 55t55 23t54.5 -23t22.5 -55t-22.5 -55t-54.5 -23t-55 23t-23 55z" />
<glyph unicode="&#x452;" horiz-adv-x="1298" d="M33 1120v90h209v224h100v-224h281v-90h-281v-426q65 79 173 135t239 56q188 0 283.5 -106.5t95.5 -301.5v-610q0 -79 -22 -136.5t-60.5 -88.5t-83.5 -45.5t-99 -14.5q-98 0 -159 37v94q66 -39 141 -39q182 0 182 209v574q0 70 -13.5 125t-38 90.5t-54 60.5t-66 37.5 t-68.5 17.5t-67 5q-113 0 -222.5 -69t-160.5 -157v-567h-100v1120h-209z" />
<glyph unicode="&#x453;" horiz-adv-x="985" d="M182 0v979h719v-90h-618v-889h-101zM434 1182l197 266h133l-223 -266h-107z" />
<glyph unicode="&#x454;" horiz-adv-x="1071" d="M113 489q0 141 64.5 258.5t183 187t266.5 69.5q170 0 293 -76v-94q-138 77 -281 77q-171 0 -289 -104t-137 -268h514v-90h-514q12 -166 132.5 -273.5t293.5 -107.5q170 0 301 92v-99q-133 -86 -313 -86q-148 0 -266.5 69.5t-183 186.5t-64.5 258z" />
<glyph unicode="&#x455;" horiz-adv-x="1015" d="M92 80v106q64 -44 172.5 -81t231.5 -37q141 0 224 50t83 138q0 34 -17 61.5t-42 46.5t-73 37t-89 29.5t-111 28.5q-63 15 -108 29.5t-93.5 37.5t-78 51t-49 68.5t-19.5 91.5q0 123 98.5 195t280.5 72q95 0 192.5 -25t161.5 -66v-102q-71 44 -163 72t-185 28 q-143 0 -214 -48t-71 -126q0 -29 10.5 -53.5t31.5 -42.5t45 -31.5t60 -25t66.5 -20t72.5 -18.5q4 -1 7 -1.5t6 -1.5q52 -12 81.5 -20t76 -23t73.5 -28.5t59.5 -36t50 -47t30 -59t12.5 -75.5q0 -129 -116 -204t-291 -75q-123 0 -233.5 31.5t-172.5 73.5z" />
<glyph unicode="&#x456;" horiz-adv-x="514" d="M178 1323q0 34 24 58t58 24t58 -24t24 -58t-24 -58t-58 -24t-58 24t-24 58zM211 0v979h100v-979h-100z" />
<glyph unicode="&#x457;" horiz-adv-x="518" d="M-14 1321q0 32 22.5 55t54.5 23t55 -23t23 -55t-23 -55t-55 -23t-54.5 23t-22.5 55zM209 0v979h100v-979h-100zM377 1321q0 32 23 55t55 23t54.5 -23t22.5 -55t-22.5 -55t-54.5 -23t-55 23t-23 55z" />
<glyph unicode="&#x458;" horiz-adv-x="522" d="M-113 -287q66 -39 142 -39q182 0 182 209v1096h100v-1112q0 -79 -21.5 -136.5t-60 -88.5t-83.5 -45.5t-99 -14.5q-99 0 -160 37v94zM178 1323q0 34 24 58t58 24t58 -24t24 -58t-24 -58t-58 -24t-58 24t-24 58z" />
<glyph unicode="&#x459;" horiz-adv-x="1843" d="M41 0v92q16 -2 41 -2q41 0 74.5 18t57 47.5t41 75.5t28.5 93t18.5 108.5t10.5 114.5t5 119l9 313h684v-352h362q170 0 265.5 -84t95.5 -228q0 -141 -94 -228t-263 -87h-465v889h-487l-6 -205q-2 -80 -6 -141.5t-14 -136.5t-25 -130t-40.5 -110t-59 -90t-83 -56.5 t-110.5 -21.5q-25 0 -39 2zM1010 90h348q129 0 200.5 58.5t71.5 164.5q0 107 -71.5 165.5t-200.5 58.5h-348v-447z" />
<glyph unicode="&#x45a;" horiz-adv-x="1830" d="M182 0v979h103v-391h645v391h100v-391h348q161 0 251.5 -77.5t90.5 -213.5q0 -133 -89 -215t-249 -82h-452v498h-645v-498h-103zM1030 90h336q120 0 186 54t66 151q0 98 -66 150.5t-186 52.5h-336v-408z" />
<glyph unicode="&#x45b;" horiz-adv-x="1298" d="M33 1120v90h209v224h100v-224h281v-90h-281v-426q65 79 173 135t239 56q188 0 283.5 -106.5t95.5 -301.5v-477h-101v457q0 70 -13.5 125t-38 90.5t-54 60.5t-66 37.5t-68.5 17.5t-67 5q-113 0 -222.5 -69t-160.5 -157v-567h-100v1120h-209z" />
<glyph unicode="&#x45c;" horiz-adv-x="1062" d="M182 0v979h101v-412l508 412h145l-547 -442l621 -537h-150l-577 498v-498h-101zM455 1182l196 266h133l-223 -266h-106z" />
<glyph unicode="&#x45e;" horiz-adv-x="1114" d="M53 979h113l389 -840l377 840h110l-493 -1090q-70 -153 -148 -230t-190 -77q-99 0 -143 31v94q56 -33 131 -33q51 0 92 21t78 70t66.5 104.5t70.5 148.5zM238 1438h92q0 -93 61 -151t168 -58q100 0 162.5 58.5t62.5 150.5h90q0 -128 -91 -210.5t-224 -82.5 q-146 0 -232.5 80.5t-88.5 212.5z" />
<glyph unicode="&#x45f;" horiz-adv-x="1214" d="M182 0v979h101v-889h647v889h100v-979h-375v-303h-98v303h-375z" />
<glyph unicode="&#x490;" horiz-adv-x="1210" d="M213 0v1434h827v303h95v-398h-820v-1339h-102z" />
<glyph unicode="&#x491;" horiz-adv-x="985" d="M182 0v979h625v272h94v-362h-618v-889h-101z" />
<glyph unicode="&#x1e02;" horiz-adv-x="1474" d="M213 0v1434h604q191 0 297.5 -93t106.5 -254q0 -115 -51.5 -193t-145.5 -114q153 -23 239.5 -124t86.5 -259q0 -181 -122.5 -289t-340.5 -108h-674zM315 94h555q177 0 273 81.5t96 232.5q0 149 -96 230t-273 81h-555v-625zM315 809h490q151 0 233 68.5t82 195.5 t-82 196.5t-233 69.5h-490v-530zM618 1690q0 34 24 58t58 24t58 -24t24 -58t-24 -58t-58 -24t-58 24t-24 58z" />
<glyph unicode="&#x1e03;" horiz-adv-x="1292" d="M182 0v1434h101v-627q65 90 167.5 143.5t233.5 53.5q146 0 261.5 -73t176 -190t60.5 -254q0 -101 -36 -194t-99.5 -163.5t-158 -112.5t-204.5 -42q-131 0 -233.5 53t-167.5 142v-170h-101zM283 307q48 -105 153 -172t228 -67q178 0 296.5 120.5t118.5 298.5 q0 181 -118.5 302.5t-296.5 121.5q-122 0 -226 -68t-155 -173v-363zM578 1690q0 34 23.5 58t57.5 24t58 -24t24 -58t-24 -58t-58 -24t-57.5 24t-23.5 58z" />
<glyph unicode="&#x1e0a;" horiz-adv-x="1587" d="M213 0v1434h449q170 0 314 -52.5t244.5 -146t157 -227t56.5 -291.5t-56.5 -291.5t-157 -227t-244.5 -146t-314 -52.5h-449zM315 94h330q317 0 500.5 170.5t183.5 452.5t-183.5 452t-500.5 170h-330v-1245zM606 1690q0 34 24 58t58 24t58 -24t24 -58t-24 -58t-58 -24 t-58 24t-24 58z" />
<glyph unicode="&#x1e0b;" horiz-adv-x="1294" d="M111 487q0 137 60.5 254t175.5 190t261 73q131 0 234 -53.5t168 -143.5v627h100v-1434h-100v170q-65 -89 -168 -142t-234 -53q-146 0 -261 72t-175.5 188t-60.5 252zM213 487q0 -178 119 -298.5t297 -120.5q123 0 227 66.5t154 172.5v363q-51 105 -155 173t-226 68 q-178 0 -297 -122t-119 -302zM557 1690q0 34 24 58t58 24t58 -24t24 -58t-24 -58t-58 -24t-58 24t-24 58z" />
<glyph unicode="&#x1e1e;" horiz-adv-x="1265" d="M213 0v1434h952v-95h-850v-538h703v-96h-703v-705h-102zM606 1690q0 34 24 58t58 24t58 -24t24 -58t-24 -58t-58 -24t-58 24t-24 58z" />
<glyph unicode="&#x1e1f;" horiz-adv-x="770" d="M57 889v90h201v190q0 130 67.5 204.5t194.5 74.5q115 0 193 -41v-94q-80 43 -172 43q-89 0 -136 -54.5t-47 -154.5v-168h355v-90h-355v-889h-100v889h-201zM408 1690q0 34 23.5 58t57.5 24t58 -24t24 -58t-24 -58t-58 -24t-57.5 24t-23.5 58z" />
<glyph unicode="&#x1e40;" horiz-adv-x="1734" d="M213 0v1434h104l551 -725l551 725h101v-1434h-103v1276l-516 -680h-65l-521 680v-1276h-102zM786 1690q0 34 24 58t58 24t58 -24t24 -58t-24 -58t-58 -24t-58 24t-24 58z" />
<glyph unicode="&#x1e41;" horiz-adv-x="1871" d="M182 0v979h101v-160q52 79 148 132t220 53q125 0 205 -54t113 -153q62 89 160.5 148t230.5 59q166 0 257 -102t91 -292v-610h-100v590q0 81 -19.5 141.5t-48 93.5t-68 53t-71 25.5t-66.5 5.5q-104 0 -201 -67t-143 -162q4 -78 4 -102v-578h-100v592q0 317 -270 317 q-100 0 -194.5 -62.5t-147.5 -156.5v-690h-101zM866 1321q0 34 24 58t58 24t58 -24t24 -58t-24 -58t-58 -24t-58 24t-24 58z" />
<glyph unicode="&#x1e56;" horiz-adv-x="1361" d="M213 0v1434h598q211 0 327.5 -105.5t116.5 -281.5t-116.5 -283t-327.5 -107h-496v-657h-102zM315 752h486q169 0 260.5 77t91.5 218q0 140 -91.5 216t-260.5 76h-486v-587zM600 1690q0 34 24 58t58 24t58 -24t24 -58t-24 -58t-58 -24t-58 24t-24 58z" />
<glyph unicode="&#x1e57;" horiz-adv-x="1292" d="M182 -410v1389h101v-170q65 89 167.5 142t233.5 53q146 0 261.5 -72.5t176 -189t60.5 -253.5q0 -101 -36 -194t-99.5 -164t-158 -113.5t-204.5 -42.5q-131 0 -233.5 53.5t-167.5 143.5v-582h-101zM283 309q48 -105 153 -173t228 -68q178 0 296.5 121t118.5 300 t-118.5 300.5t-296.5 121.5q-123 0 -228 -67t-153 -172v-363zM586 1321q0 34 24 58t58 24t58 -24t24 -58t-24 -58t-58 -24t-58 24t-24 58z" />
<glyph unicode="&#x1e60;" horiz-adv-x="1277" d="M98 129v117q80 -70 220 -122t296 -52q185 0 303.5 83t118.5 222q0 60 -25 108t-52 76t-97 58.5t-106.5 42t-134.5 39.5q-8 3 -13 4q-59 17 -96.5 29t-87 29.5t-81 34.5t-67.5 39.5t-57.5 48.5t-41 58t-28 72t-8.5 86q0 153 124.5 254.5t352.5 101.5q249 0 437 -121v-108 q-192 131 -432 131q-188 0 -283.5 -75t-95.5 -185q0 -53 24 -96.5t49 -69t95 -55t103.5 -40t134.5 -39.5q10 -3 16 -5q60 -17 99 -29.5t94 -34.5t91 -43t75.5 -53t62.5 -68t38 -84.5t15 -105.5q0 -127 -73.5 -220t-189 -137.5t-255.5 -44.5q-160 0 -301.5 45t-223.5 109z M520 1690q0 34 24 58t58 24t58 -24t24 -58t-24 -58t-58 -24t-58 24t-24 58z" />
<glyph unicode="&#x1e61;" horiz-adv-x="1026" d="M96 80v106q64 -44 172.5 -81t231.5 -37q141 0 224 50t83 138q0 34 -17 61.5t-42 46.5t-73 37t-89 29.5t-111 28.5q-63 15 -108 29.5t-93.5 37.5t-78 51t-49 68.5t-19.5 91.5q0 123 98.5 195t280.5 72q95 0 192.5 -25t161.5 -66v-102q-71 44 -163 72t-185 28 q-143 0 -214 -48t-71 -126q0 -29 10.5 -53.5t31.5 -42.5t45 -31.5t60 -25t66.5 -20t72.5 -18.5q4 -1 7 -1.5t6 -1.5q52 -12 81.5 -20t76 -23t73.5 -28.5t59.5 -36t50 -47t30 -59t12.5 -75.5q0 -129 -116 -204t-291 -75q-123 0 -233.5 31.5t-172.5 73.5zM418 1321q0 34 24 58 t58 24t58 -24t24 -58t-24 -58t-58 -24t-58 24t-24 58z" />
<glyph unicode="&#x1e6a;" horiz-adv-x="1271" d="M74 1339v95h1126v-95h-512v-1339h-102v1339h-512zM555 1690q0 34 24 58t58 24t58 -24t24 -58t-24 -58t-58 -24t-58 24t-24 58z" />
<glyph unicode="&#x1e6b;" horiz-adv-x="866" d="M57 889v90h248v313h101v-313h360v-90h-360v-602q0 -120 42 -167.5t140 -47.5q82 0 164 45v-97q-27 -19 -81 -32t-110 -13q-130 0 -193 76t-63 209v629h-248zM274 1493q0 34 24 58t58 24t58 -24t24 -58t-24 -58t-58 -24t-58 24t-24 58z" />
<glyph unicode="&#x1e80;" horiz-adv-x="2136" d="M90 1434h115l434 -1272l385 1276h86l389 -1276l432 1272h113l-498 -1442h-92l-385 1261l-391 -1261h-88zM788 1829h136l196 -266h-106z" />
<glyph unicode="&#x1e81;" horiz-adv-x="1675" d="M88 979h105l303 -832l295 836h86l297 -836l301 832h102l-358 -987h-86l-304 835l-294 -835h-89zM563 1448h137l197 -266h-106z" />
<glyph unicode="&#x1e82;" horiz-adv-x="2136" d="M90 1434h115l434 -1272l385 1276h86l389 -1276l432 1272h113l-498 -1442h-92l-385 1261l-391 -1261h-88zM1010 1563l196 266h133l-223 -266h-106z" />
<glyph unicode="&#x1e83;" horiz-adv-x="1675" d="M88 979h105l303 -832l295 836h86l297 -836l301 832h102l-358 -987h-86l-304 835l-294 -835h-89zM776 1182l197 266h133l-223 -266h-107z" />
<glyph unicode="&#x1e84;" horiz-adv-x="2136" d="M90 1434h115l434 -1272l385 1276h86l389 -1276l432 1272h113l-498 -1442h-92l-385 1261l-391 -1261h-88zM795 1690q0 32 22.5 54.5t54.5 22.5t55 -22.5t23 -54.5t-23 -55t-55 -23t-54.5 23t-22.5 55zM1186 1690q0 32 23 54.5t55 22.5t54.5 -22.5t22.5 -54.5t-22.5 -55 t-54.5 -23t-55 23t-23 55z" />
<glyph unicode="&#x1e85;" horiz-adv-x="1675" d="M88 979h105l303 -832l295 836h86l297 -836l301 832h102l-358 -987h-86l-304 835l-294 -835h-89zM559 1321q0 32 23 55t55 23t55 -23t23 -55t-23 -55t-55 -23t-55 23t-23 55zM950 1321q0 32 23 55t55 23t55 -23t23 -55t-23 -55t-55 -23t-55 23t-23 55z" />
<glyph unicode="&#x1ef2;" horiz-adv-x="1329" d="M53 1434h123l488 -674l491 674h117l-559 -768v-666h-103v664zM416 1829h135l197 -266h-107z" />
<glyph unicode="&#x1ef3;" horiz-adv-x="1114" d="M53 979h113l389 -840l377 840h110l-493 -1090q-70 -153 -148 -230t-190 -77q-99 0 -143 31v94q56 -33 131 -33q51 0 92 21t78 70t66.5 104.5t70.5 148.5zM322 1448h137l196 -266h-106z" />
<glyph unicode="&#x2000;" horiz-adv-x="945" />
<glyph unicode="&#x2001;" horiz-adv-x="1890" />
<glyph unicode="&#x2002;" horiz-adv-x="945" />
<glyph unicode="&#x2003;" horiz-adv-x="1890" />
<glyph unicode="&#x2004;" horiz-adv-x="630" />
<glyph unicode="&#x2005;" horiz-adv-x="472" />
<glyph unicode="&#x2006;" horiz-adv-x="315" />
<glyph unicode="&#x2007;" horiz-adv-x="315" />
<glyph unicode="&#x2008;" horiz-adv-x="236" />
<glyph unicode="&#x2009;" horiz-adv-x="378" />
<glyph unicode="&#x200a;" horiz-adv-x="105" />
<glyph unicode="&#x2010;" horiz-adv-x="976" d="M211 506v92h555v-92h-555z" />
<glyph unicode="&#x2011;" horiz-adv-x="976" d="M211 506v92h555v-92h-555z" />
<glyph unicode="&#x2012;" horiz-adv-x="976" d="M211 506v92h555v-92h-555z" />
<glyph unicode="&#x2013;" horiz-adv-x="1472" d="M211 506v92h1051v-92h-1051z" />
<glyph unicode="&#x2014;" horiz-adv-x="1851" d="M211 506v92h1431v-92h-1431z" />
<glyph unicode="&#x2015;" horiz-adv-x="1472" d="M211 506v92h1051v-92h-1051z" />
<glyph unicode="&#x2018;" horiz-adv-x="372" d="M41 940l192 494h86l-155 -494h-123z" />
<glyph unicode="&#x2019;" horiz-adv-x="372" d="M51 940l156 494h123l-193 -494h-86z" />
<glyph unicode="&#x201a;" horiz-adv-x="458" d="M45 -311l156 493h123l-193 -493h-86z" />
<glyph unicode="&#x201c;" horiz-adv-x="641" d="M41 940l192 494h86l-155 -494h-123zM307 940l193 494h86l-156 -494h-123z" />
<glyph unicode="&#x201d;" horiz-adv-x="641" d="M51 940l156 494h123l-193 -494h-86zM317 940l156 494h123l-193 -494h-86z" />
<glyph unicode="&#x201e;" horiz-adv-x="724" d="M45 -311l156 493h123l-193 -493h-86zM311 -311l156 493h123l-193 -493h-86z" />
<glyph unicode="&#x2020;" horiz-adv-x="1079" d="M117 889v90h372v455h99v-455h375v-90h-375v-889h-99v889h-372z" />
<glyph unicode="&#x2021;" horiz-adv-x="1079" d="M117 451v90h372v348h-372v90h372v455h99v-455h375v-90h-375v-348h375v-90h-375v-451h-99v451h-372z" />
<glyph unicode="&#x2022;" horiz-adv-x="831" d="M209 774q0 84 61.5 144.5t143.5 60.5q88 0 147.5 -59.5t59.5 -145.5q0 -84 -60 -143.5t-147 -59.5q-82 0 -143.5 60t-61.5 143z" />
<glyph unicode="&#x2026;" horiz-adv-x="1302" d="M147 76q0 34 24 57t58 23t58 -23t24 -57q0 -35 -24 -58.5t-58 -23.5t-58 23.5t-24 58.5zM569 76q0 34 23.5 57t58.5 23q34 0 57 -23t23 -57q0 -35 -23 -58.5t-57 -23.5q-35 0 -58.5 23.5t-23.5 58.5zM991 76q0 34 24 57t58 23t58 -23t24 -57q0 -35 -24 -58.5t-58 -23.5 t-58 23.5t-24 58.5z" />
<glyph unicode="&#x202f;" horiz-adv-x="378" />
<glyph unicode="&#x2030;" horiz-adv-x="2467" d="M111 1116q0 143 94.5 242.5t240.5 99.5t241 -99.5t95 -242.5t-95 -242.5t-241 -99.5t-240.5 99.5t-94.5 242.5zM201 1116q0 -110 69 -185t176 -75q108 0 178 75t70 185t-70 185t-178 75q-107 0 -176 -75t-69 -185zM375 0l833 1434h105l-836 -1434h-102zM901 317 q0 143 96 242.5t242 99.5q144 0 240 -99.5t96 -242.5t-96 -242.5t-240 -99.5q-146 0 -242 99.5t-96 242.5zM991 317q0 -110 69.5 -185t178.5 -75q107 0 176.5 75t69.5 185t-69.5 185.5t-176.5 75.5q-109 0 -178.5 -75.5t-69.5 -185.5zM1686 317q0 143 94.5 242.5t240.5 99.5 t241 -99.5t95 -242.5t-95 -242.5t-241 -99.5t-240.5 99.5t-94.5 242.5zM1774 317q0 -110 70 -185t177 -75t176.5 75t69.5 185t-69.5 185.5t-176.5 75.5t-177 -75.5t-70 -185.5z" />
<glyph unicode="&#x2039;" horiz-adv-x="641" d="M104 463v55l320 375h117l-342 -406l342 -401h-117z" />
<glyph unicode="&#x203a;" horiz-adv-x="643" d="M102 86l342 401l-342 406h117l320 -375v-55l-320 -377h-117z" />
<glyph unicode="&#x2044;" horiz-adv-x="346" d="M-283 0l836 1434h104l-835 -1434h-105z" />
<glyph unicode="&#x205f;" horiz-adv-x="472" />
<glyph unicode="&#x2070;" horiz-adv-x="798" d="M76 1047q0 167 90.5 282t232.5 115t233 -115t91 -282q0 -169 -91 -283.5t-233 -114.5t-232.5 114.5t-90.5 283.5zM170 1047q0 -134 64.5 -225t164.5 -91t165 91t65 225t-65 224.5t-165 90.5t-164.5 -90.5t-64.5 -224.5z" />
<glyph unicode="&#x2074;" horiz-adv-x="722" d="M47 868v70l416 496h88v-488h125v-78h-125v-209h-92v209h-412zM154 946h305v365z" />
<glyph unicode="&#x2075;" horiz-adv-x="688" d="M76 702v91q110 -62 217 -62q94 0 156.5 50t62.5 128q0 71 -58.5 119.5t-154.5 48.5q-116 0 -193 -30l52 387h397v-80h-326l-26 -213q43 12 114 12q125 0 207 -67.5t82 -176.5q0 -117 -89 -188.5t-220 -71.5q-126 0 -221 53z" />
<glyph unicode="&#x2076;" horiz-adv-x="724" d="M82 1012q0 186 91.5 309t248.5 123q103 0 174 -45v-86q-73 49 -162 49q-115 0 -187 -84t-73 -225q35 48 93.5 77t129.5 29q106 0 179 -69.5t73 -180.5q0 -113 -76.5 -186.5t-191.5 -73.5q-143 0 -221 101t-78 262zM178 952q5 -100 57 -161.5t142 -61.5q77 0 128.5 50.5 t51.5 129.5q0 76 -52.5 125t-127.5 49q-64 0 -117 -36.5t-82 -94.5z" />
<glyph unicode="&#x2077;" horiz-adv-x="638" d="M61 1354v80h517v-72l-357 -703h-104l356 695h-412z" />
<glyph unicode="&#x2078;" horiz-adv-x="739" d="M68 872q0 71 42 122.5t115 78.5q-116 50 -116 168q0 91 74 147t186 56q114 0 188 -56t74 -147q0 -118 -117 -168q74 -27 116 -78t42 -123q0 -102 -86.5 -162.5t-216.5 -60.5q-128 0 -214.5 61t-86.5 162zM162 881q0 -66 58.5 -110t148.5 -44t149.5 44t59.5 110 q0 69 -58.5 110t-150.5 41t-149.5 -41t-57.5 -110zM197 1231q0 -58 48.5 -92.5t123.5 -34.5q77 0 125.5 34.5t48.5 92.5q0 63 -49 99t-125 36t-124 -36t-48 -99z" />
<glyph unicode="&#x2079;" horiz-adv-x="724" d="M82 1184q0 113 76.5 186.5t191.5 73.5q144 0 221.5 -100.5t77.5 -262.5q0 -186 -92.5 -309t-249.5 -123q-102 0 -170 45v86q73 -49 162 -49q114 0 185.5 84t72.5 225q-82 -106 -221 -106q-107 0 -180.5 69.5t-73.5 180.5zM174 1184q0 -77 52 -125.5t130 -48.5 q64 0 116 36.5t81 94.5q-5 99 -57.5 161t-139.5 62q-79 0 -130.5 -50.5t-51.5 -129.5z" />
<glyph unicode="&#x2080;" horiz-adv-x="798" d="M76 387q0 167 90.5 282t232.5 115t233 -115t91 -282q0 -169 -90.5 -283t-233.5 -114q-142 0 -232.5 114t-90.5 283zM170 387q0 -134 64.5 -224.5t164.5 -90.5t165 90.5t65 224.5t-65 224.5t-165 90.5t-164.5 -90.5t-64.5 -224.5z" />
<glyph unicode="&#x2081;" horiz-adv-x="481" d="M51 549v94l219 131h88v-774h-94v676z" />
<glyph unicode="&#x2082;" horiz-adv-x="731" d="M94 0v70l260 243q81 74 116.5 126.5t35.5 113.5q0 65 -46 104t-122 39q-126 0 -227 -94v98q96 84 235 84q108 0 181 -61.5t73 -159.5q0 -77 -41 -143t-131 -152l-197 -188h398v-80h-535z" />
<glyph unicode="&#x2083;" horiz-adv-x="661" d="M53 49v88q98 -65 226 -65q84 0 147 48t63 128q0 76 -54 121t-148 45q-41 0 -92 -15v64l235 231h-344v80h469v-67l-229 -226q48 -2 91.5 -16.5t81.5 -41.5t60.5 -72.5t22.5 -104.5q0 -114 -84 -185t-213 -71q-146 0 -232 59z" />
<glyph unicode="&#x2084;" horiz-adv-x="722" d="M47 209v70l416 495h88v-487h125v-78h-125v-209h-92v209h-412zM154 287h305v364z" />
<glyph unicode="&#x2085;" horiz-adv-x="688" d="M76 43v90q108 -61 217 -61q94 0 156.5 50t62.5 128q0 71 -58.5 119.5t-154.5 48.5q-113 0 -193 -31l52 387h397v-80h-326l-26 -213q47 13 114 13q125 0 207 -67.5t82 -176.5q0 -117 -89 -188.5t-220 -71.5q-126 0 -221 53z" />
<glyph unicode="&#x2086;" horiz-adv-x="724" d="M82 352q0 186 91.5 309t248.5 123q103 0 174 -45v-86q-73 49 -162 49q-115 0 -187 -84t-73 -225q35 48 93.5 77.5t129.5 29.5q106 0 179 -69.5t73 -180.5q0 -113 -76.5 -186.5t-191.5 -73.5q-143 0 -221 100.5t-78 261.5zM178 293q5 -100 57 -161.5t142 -61.5 q77 0 128.5 50.5t51.5 129.5q0 76 -52.5 125t-127.5 49q-64 0 -117 -36.5t-82 -94.5z" />
<glyph unicode="&#x2087;" horiz-adv-x="638" d="M61 694v80h517v-72l-357 -702h-104l356 694h-412z" />
<glyph unicode="&#x2088;" horiz-adv-x="739" d="M68 213q0 71 42 122.5t115 78.5q-116 50 -116 168q0 91 74 146.5t186 55.5q114 0 188 -55.5t74 -146.5q0 -118 -117 -168q74 -27 116 -78t42 -123q0 -102 -86.5 -162.5t-216.5 -60.5q-128 0 -214.5 61t-86.5 162zM162 221q0 -66 58.5 -109.5t148.5 -43.5q91 0 150 43.5 t59 109.5q0 69 -58.5 110.5t-150.5 41.5t-149.5 -41t-57.5 -111zM197 571q0 -58 48.5 -92.5t123.5 -34.5q77 0 125.5 34.5t48.5 92.5q0 63 -49 99.5t-125 36.5q-75 0 -123.5 -36.5t-48.5 -99.5z" />
<glyph unicode="&#x2089;" horiz-adv-x="724" d="M82 524q0 113 76.5 186.5t191.5 73.5q144 0 221.5 -100t77.5 -262q0 -186 -92.5 -309t-249.5 -123q-102 0 -170 45v86q73 -49 162 -49q114 0 185.5 84t72.5 225q-82 -107 -221 -107q-107 0 -180.5 69.5t-73.5 180.5zM174 524q0 -77 52 -125.5t130 -48.5q64 0 116 36.5 t81 94.5q-5 99 -57.5 161.5t-139.5 62.5q-78 0 -130 -51t-52 -130z" />
<glyph unicode="&#x20a3;" horiz-adv-x="1286" d="M-8 334v92h241v1008h953v-95h-850v-538h704v-96h-704v-279h373v-92h-373v-334h-103v334h-241z" />
<glyph unicode="&#x20a4;" horiz-adv-x="1189" d="M135 0v94h47q94 0 94 162v201h-141v92h141v227h-141v94h141v134q0 217 119.5 335.5t333.5 118.5q194 0 334 -92v-106q-62 48 -147.5 75t-176.5 27q-175 0 -267.5 -95t-92.5 -276v-121h573v-94h-573v-227h573v-92h-573v-254q0 -38 -13 -67t-32 -42h739v-94h-938z" />
<glyph unicode="&#x20a7;" horiz-adv-x="1437" d="M47 997v93h174v344h598q197 0 312.5 -93.5t130.5 -250.5h157v-93h-159q-19 -157 -133 -248.5t-308 -91.5h-495v-657h-103v997h-174zM324 752h487q167 0 258.5 77t91.5 218q0 140 -91.5 216t-258.5 76h-487v-587z" />
<glyph unicode="&#x20ac;" horiz-adv-x="1415" d="M94 537v92h176q-2 33 -2 98q0 47 8 129h-182v94h199q57 232 221.5 370t403.5 138q213 0 362 -106v-107q-160 115 -356 115q-195 0 -334.5 -109.5t-190.5 -300.5h559v-94h-577q-10 -68 -10 -129q0 -44 4 -98h583v-92h-569q39 -214 181 -339.5t354 -125.5q112 0 213 37 t176 108v-113q-160 -129 -395 -129q-250 0 -422 153t-213 409h-189z" />
<glyph unicode="&#x20b4;" horiz-adv-x="1243" d="M135 547v94h971v-94h-606q-183 -101 -183 -248q0 -110 89.5 -168.5t265.5 -58.5q92 0 186 22t166 58v-103q-151 -74 -362 -74q-216 0 -332.5 82.5t-116.5 225.5q0 162 139 264h-217zM135 829v95h662q143 88 143 219q0 105 -86 161t-256 56q-176 0 -338 -72v101 q145 69 344 69q217 0 330 -82t113 -223q0 -137 -113 -229h172v-95h-971z" />
<glyph unicode="&#x20b6;" horiz-adv-x="1363" d="M49 336v94h195v229h-195v93h195v682h592q211 0 327.5 -105.5t116.5 -281.5q0 -175 -117 -281.5t-327 -106.5h-490v-229h623v-94h-623v-336h-102v336h-195zM346 752h481q167 0 259 77t92 218q0 139 -92 215.5t-259 76.5h-481v-587z" />
<glyph unicode="&#x20ce;" horiz-adv-x="1363" d="M49 336v94h195v229h-195v93h195v682h592q211 0 327.5 -105.5t116.5 -281.5q0 -175 -117 -281.5t-327 -106.5h-490v-229h623v-94h-623v-336h-102v336h-195zM346 752h481q167 0 259 77t92 218q0 139 -92 215.5t-259 76.5h-481v-587z" />
<glyph unicode="&#x20cd;" horiz-adv-x="1363" d="M49 336v94h195v229h-195v93h195v682h592q211 0 327.5 -105.5t116.5 -281.5q0 -175 -117 -281.5t-327 -106.5h-490v-229h623v-94h-623v-336h-102v336h-195zM346 752h481q167 0 259 77t92 218q0 139 -92 215.5t-259 76.5h-481v-587z" />
<glyph unicode="&#x20cc;" horiz-adv-x="1363" d="M49 336v94h195v229h-195v93h195v682h592q211 0 327.5 -105.5t116.5 -281.5q0 -175 -117 -281.5t-327 -106.5h-490v-229h623v-94h-623v-336h-102v336h-195zM346 752h481q167 0 259 77t92 218q0 139 -92 215.5t-259 76.5h-481v-587z" />
<glyph unicode="&#x20cb;" horiz-adv-x="1363" d="M49 336v94h195v229h-195v93h195v682h592q211 0 327.5 -105.5t116.5 -281.5q0 -175 -117 -281.5t-327 -106.5h-490v-229h623v-94h-623v-336h-102v336h-195zM346 752h481q167 0 259 77t92 218q0 139 -92 215.5t-259 76.5h-481v-587z" />
<glyph unicode="&#x20ca;" horiz-adv-x="1363" d="M49 336v94h195v229h-195v93h195v682h592q211 0 327.5 -105.5t116.5 -281.5q0 -175 -117 -281.5t-327 -106.5h-490v-229h623v-94h-623v-336h-102v336h-195zM346 752h481q167 0 259 77t92 218q0 139 -92 215.5t-259 76.5h-481v-587z" />
<glyph unicode="&#x20c9;" horiz-adv-x="1363" d="M49 336v94h195v229h-195v93h195v682h592q211 0 327.5 -105.5t116.5 -281.5q0 -175 -117 -281.5t-327 -106.5h-490v-229h623v-94h-623v-336h-102v336h-195zM346 752h481q167 0 259 77t92 218q0 139 -92 215.5t-259 76.5h-481v-587z" />
<glyph unicode="&#x20c8;" horiz-adv-x="1363" d="M49 336v94h195v229h-195v93h195v682h592q211 0 327.5 -105.5t116.5 -281.5q0 -175 -117 -281.5t-327 -106.5h-490v-229h623v-94h-623v-336h-102v336h-195zM346 752h481q167 0 259 77t92 218q0 139 -92 215.5t-259 76.5h-481v-587z" />
<glyph unicode="&#x20c7;" horiz-adv-x="1363" d="M49 336v94h195v229h-195v93h195v682h592q211 0 327.5 -105.5t116.5 -281.5q0 -175 -117 -281.5t-327 -106.5h-490v-229h623v-94h-623v-336h-102v336h-195zM346 752h481q167 0 259 77t92 218q0 139 -92 215.5t-259 76.5h-481v-587z" />
<glyph unicode="&#x20c6;" horiz-adv-x="1363" d="M49 336v94h195v229h-195v93h195v682h592q211 0 327.5 -105.5t116.5 -281.5q0 -175 -117 -281.5t-327 -106.5h-490v-229h623v-94h-623v-336h-102v336h-195zM346 752h481q167 0 259 77t92 218q0 139 -92 215.5t-259 76.5h-481v-587z" />
<glyph unicode="&#x20c5;" horiz-adv-x="1363" d="M49 336v94h195v229h-195v93h195v682h592q211 0 327.5 -105.5t116.5 -281.5q0 -175 -117 -281.5t-327 -106.5h-490v-229h623v-94h-623v-336h-102v336h-195zM346 752h481q167 0 259 77t92 218q0 139 -92 215.5t-259 76.5h-481v-587z" />
<glyph unicode="&#x20c4;" horiz-adv-x="1363" d="M49 336v94h195v229h-195v93h195v682h592q211 0 327.5 -105.5t116.5 -281.5q0 -175 -117 -281.5t-327 -106.5h-490v-229h623v-94h-623v-336h-102v336h-195zM346 752h481q167 0 259 77t92 218q0 139 -92 215.5t-259 76.5h-481v-587z" />
<glyph unicode="&#x20c3;" horiz-adv-x="1363" d="M49 336v94h195v229h-195v93h195v682h592q211 0 327.5 -105.5t116.5 -281.5q0 -175 -117 -281.5t-327 -106.5h-490v-229h623v-94h-623v-336h-102v336h-195zM346 752h481q167 0 259 77t92 218q0 139 -92 215.5t-259 76.5h-481v-587z" />
<glyph unicode="&#x20c2;" horiz-adv-x="1363" d="M49 336v94h195v229h-195v93h195v682h592q211 0 327.5 -105.5t116.5 -281.5q0 -175 -117 -281.5t-327 -106.5h-490v-229h623v-94h-623v-336h-102v336h-195zM346 752h481q167 0 259 77t92 218q0 139 -92 215.5t-259 76.5h-481v-587z" />
<glyph unicode="&#x20c1;" horiz-adv-x="1363" d="M49 336v94h195v229h-195v93h195v682h592q211 0 327.5 -105.5t116.5 -281.5q0 -175 -117 -281.5t-327 -106.5h-490v-229h623v-94h-623v-336h-102v336h-195zM346 752h481q167 0 259 77t92 218q0 139 -92 215.5t-259 76.5h-481v-587z" />
<glyph unicode="&#x20c0;" horiz-adv-x="1363" d="M49 336v94h195v229h-195v93h195v682h592q211 0 327.5 -105.5t116.5 -281.5q0 -175 -117 -281.5t-327 -106.5h-490v-229h623v-94h-623v-336h-102v336h-195zM346 752h481q167 0 259 77t92 218q0 139 -92 215.5t-259 76.5h-481v-587z" />
<glyph unicode="&#x20bf;" horiz-adv-x="1363" d="M49 336v94h195v229h-195v93h195v682h592q211 0 327.5 -105.5t116.5 -281.5q0 -175 -117 -281.5t-327 -106.5h-490v-229h623v-94h-623v-336h-102v336h-195zM346 752h481q167 0 259 77t92 218q0 139 -92 215.5t-259 76.5h-481v-587z" />
<glyph unicode="&#x20be;" horiz-adv-x="1363" d="M49 336v94h195v229h-195v93h195v682h592q211 0 327.5 -105.5t116.5 -281.5q0 -175 -117 -281.5t-327 -106.5h-490v-229h623v-94h-623v-336h-102v336h-195zM346 752h481q167 0 259 77t92 218q0 139 -92 215.5t-259 76.5h-481v-587z" />
<glyph unicode="&#x20bd;" horiz-adv-x="1363" d="M49 336v94h195v229h-195v93h195v682h592q211 0 327.5 -105.5t116.5 -281.5q0 -175 -117 -281.5t-327 -106.5h-490v-229h623v-94h-623v-336h-102v336h-195zM346 752h481q167 0 259 77t92 218q0 139 -92 215.5t-259 76.5h-481v-587z" />
<glyph unicode="&#x20bc;" horiz-adv-x="1363" d="M49 336v94h195v229h-195v93h195v682h592q211 0 327.5 -105.5t116.5 -281.5q0 -175 -117 -281.5t-327 -106.5h-490v-229h623v-94h-623v-336h-102v336h-195zM346 752h481q167 0 259 77t92 218q0 139 -92 215.5t-259 76.5h-481v-587z" />
<glyph unicode="&#x20bb;" horiz-adv-x="1363" d="M49 336v94h195v229h-195v93h195v682h592q211 0 327.5 -105.5t116.5 -281.5q0 -175 -117 -281.5t-327 -106.5h-490v-229h623v-94h-623v-336h-102v336h-195zM346 752h481q167 0 259 77t92 218q0 139 -92 215.5t-259 76.5h-481v-587z" />
<glyph unicode="&#x20ba;" horiz-adv-x="1363" d="M49 336v94h195v229h-195v93h195v682h592q211 0 327.5 -105.5t116.5 -281.5q0 -175 -117 -281.5t-327 -106.5h-490v-229h623v-94h-623v-336h-102v336h-195zM346 752h481q167 0 259 77t92 218q0 139 -92 215.5t-259 76.5h-481v-587z" />
<glyph unicode="&#x20b9;" horiz-adv-x="1363" d="M49 336v94h195v229h-195v93h195v682h592q211 0 327.5 -105.5t116.5 -281.5q0 -175 -117 -281.5t-327 -106.5h-490v-229h623v-94h-623v-336h-102v336h-195zM346 752h481q167 0 259 77t92 218q0 139 -92 215.5t-259 76.5h-481v-587z" />
<glyph unicode="&#x20b7;" horiz-adv-x="1363" d="M49 336v94h195v229h-195v93h195v682h592q211 0 327.5 -105.5t116.5 -281.5q0 -175 -117 -281.5t-327 -106.5h-490v-229h623v-94h-623v-336h-102v336h-195zM346 752h481q167 0 259 77t92 218q0 139 -92 215.5t-259 76.5h-481v-587z" />
<glyph unicode="&#x2113;" horiz-adv-x="866" d="M166 365v663q0 198 86 309t225 111q121 0 187.5 -79.5t66.5 -221.5q0 -356 -467 -776v-101q0 -200 199 -200q96 0 188 59v-98q-76 -56 -202 -56q-135 0 -206.5 71.5t-74.5 207.5q-2 37 -2 111zM264 498q369 369 369 651q0 207 -154 207q-86 0 -150.5 -82.5t-64.5 -243.5 v-532z" />
<glyph unicode="&#x2116;" horiz-adv-x="2324" d="M213 0v1434h90l967 -1256v1256h102v-1434h-88l-969 1257v-1257h-102zM1520 1116q0 143 94.5 242.5t240.5 99.5t241 -99.5t95 -242.5t-95 -242.5t-241 -99.5t-240.5 99.5t-94.5 242.5zM1559 545v86h595v-86h-595zM1608 1116q0 -110 70 -185t177 -75t176.5 75t69.5 185 t-69.5 185t-176.5 75t-177 -75t-70 -185z" />
<glyph unicode="&#x2122;" horiz-adv-x="1406" d="M51 1364v70h506v-70h-219v-561h-78v561h-209zM676 803v631h74l231 -291l225 291h74v-631h-80v506l-201 -250h-41l-202 250v-506h-80z" />
<glyph unicode="&#x2126;" horiz-adv-x="1648" d="M221 745q0 154 44.5 286.5t123 226.5t190.5 147t244 53q177 0 316 -91t215 -253.5t76 -368.5q0 -194 -74.5 -364.5t-190.5 -286.5h254v-94h-387v82q124 106 208.5 278.5t84.5 370.5q0 280 -142 454.5t-360 174.5q-217 0 -358 -174.5t-141 -454.5q0 -198 84 -369.5 t208 -279.5v-82h-389v94h254q-114 116 -187 286t-73 365z" />
<glyph unicode="&#x212e;" horiz-adv-x="1654" d="M152 645q0 140 50.5 264.5t138.5 215t215 143.5t273 53q149 0 276 -55t212 -147.5t134 -212t52 -249.5h-1173v-401q88 -113 216 -175.5t283 -62.5q197 0 352.5 104t227.5 275h49q-71 -188 -239 -305t-390 -117q-190 0 -345 87.5t-243.5 241t-88.5 341.5zM330 700h997v340 q-87 112 -216.5 174t-281.5 62q-155 0 -283 -62t-216 -174v-340z" />
<glyph unicode="&#x2153;" horiz-adv-x="1587" d="M51 1208v95l219 131h88v-775h-94v676zM240 0l835 1434h105l-836 -1434h-104zM979 49v88q98 -65 225 -65q84 0 147.5 48.5t63.5 127.5q0 76 -54.5 121t-148.5 45q-41 0 -92 -15v64l236 231h-344v80h469v-67l-230 -226q48 -2 91.5 -16.5t81.5 -41.5t60.5 -72.5t22.5 -104.5 q0 -114 -84 -185t-213 -71q-145 0 -231 59z" />
<glyph unicode="&#x2154;" horiz-adv-x="1816" d="M94 659v70l260 244q81 74 116.5 126.5t35.5 112.5q0 65 -46 104.5t-122 39.5q-126 0 -227 -94v98q96 84 235 84q108 0 181 -61.5t73 -159.5q0 -77 -41 -143t-131 -152l-197 -189h398v-80h-535zM469 0l836 1434h104l-836 -1434h-104zM1210 49v88q98 -65 226 -65 q84 0 147.5 48.5t63.5 127.5q0 76 -54.5 121t-148.5 45q-41 0 -92 -15v64l235 231h-344v80h469v-67l-229 -226q48 -2 91.5 -16.5t81.5 -41.5t60.5 -72.5t22.5 -104.5q0 -114 -84 -185t-213 -71q-146 0 -232 59z" />
<glyph unicode="&#x2155;" horiz-adv-x="1548" d="M51 1208v95l219 131h88v-775h-94v676zM240 0l835 1434h105l-836 -1434h-104zM936 43v90q108 -61 217 -61q94 0 156.5 50t62.5 128q0 71 -58.5 119.5t-154.5 48.5q-112 0 -192 -31l51 387h397v-80h-325l-27 -213q47 13 115 13q125 0 206.5 -67.5t81.5 -176.5 q0 -117 -89 -188.5t-220 -71.5q-126 0 -221 53z" />
<glyph unicode="&#x2156;" horiz-adv-x="1777" d="M94 659v70l260 244q81 74 116.5 126.5t35.5 112.5q0 65 -46 104.5t-122 39.5q-126 0 -227 -94v98q96 84 235 84q108 0 181 -61.5t73 -159.5q0 -77 -41 -143t-131 -152l-197 -189h398v-80h-535zM469 0l836 1434h104l-836 -1434h-104zM1165 43v90q108 -61 217 -61 q94 0 157 50t63 128q0 71 -58.5 119.5t-154.5 48.5q-113 0 -193 -31l51 387h398v-80h-326l-27 -213q47 13 115 13q125 0 207 -67.5t82 -176.5q0 -117 -89.5 -188.5t-220.5 -71.5q-126 0 -221 53z" />
<glyph unicode="&#x2157;" horiz-adv-x="1656" d="M53 709v88q100 -66 226 -66q84 0 147 48t63 128q0 76 -54 121t-148 45q-45 0 -92 -14v63l235 232h-344v80h469v-68l-229 -225q48 -2 91.5 -16.5t81.5 -41.5t60.5 -73t22.5 -105q0 -114 -84 -185t-213 -71q-144 0 -232 60zM346 0l836 1434h104l-835 -1434h-105zM1044 43 v90q108 -61 218 -61q94 0 156.5 50t62.5 128q0 71 -58.5 119.5t-154.5 48.5q-113 0 -193 -31l51 387h398v-80h-326l-27 -213q47 13 115 13q125 0 207 -67.5t82 -176.5q0 -117 -89 -188.5t-220 -71.5q-127 0 -222 53z" />
<glyph unicode="&#x2158;" horiz-adv-x="1742" d="M47 868v70l416 496h88v-488h125v-78h-125v-209h-92v209h-412zM154 946h305v365zM432 0l836 1434h104l-835 -1434h-105zM1130 43v90q108 -61 218 -61q94 0 156.5 50t62.5 128q0 71 -58.5 119.5t-154.5 48.5q-113 0 -193 -31l51 387h398v-80h-326l-27 -213q47 13 115 13 q125 0 207 -67.5t82 -176.5q0 -117 -89 -188.5t-220 -71.5q-127 0 -222 53z" />
<glyph unicode="&#x2159;" horiz-adv-x="1556" d="M51 1208v95l219 131h88v-775h-94v676zM240 0l835 1434h105l-836 -1434h-104zM913 352q0 186 91.5 309t248.5 123q103 0 174 -45v-86q-73 49 -161 49q-115 0 -187 -84t-73 -225q35 48 93.5 77.5t129.5 29.5q106 0 179 -69.5t73 -180.5q0 -113 -77 -186.5t-192 -73.5 q-143 0 -221 100.5t-78 261.5zM1010 293q5 -100 56.5 -161.5t141.5 -61.5q77 0 129 50.5t52 129.5q0 76 -53 125t-128 49q-64 0 -116.5 -36.5t-81.5 -94.5z" />
<glyph unicode="&#x215a;" horiz-adv-x="1687" d="M76 702v91q110 -62 217 -62q94 0 156.5 50t62.5 128q0 71 -58.5 119.5t-154.5 48.5q-116 0 -193 -30l52 387h397v-80h-326l-26 -213q43 12 114 12q125 0 207 -67.5t82 -176.5q0 -117 -89 -188.5t-220 -71.5q-126 0 -221 53zM369 0l835 1434h105l-836 -1434h-104z M1044 352q0 186 91.5 309t248.5 123q104 0 175 -45v-86q-73 49 -162 49q-115 0 -187 -84t-73 -225q35 48 93.5 77.5t129.5 29.5q106 0 179 -69.5t73 -180.5q0 -113 -77 -186.5t-192 -73.5q-143 0 -221 100.5t-78 261.5zM1141 293q5 -100 56.5 -161.5t141.5 -61.5 q77 0 129 50.5t52 129.5q0 76 -53 125t-128 49q-64 0 -116.5 -36.5t-81.5 -94.5z" />
<glyph unicode="&#x215b;" horiz-adv-x="1591" d="M51 1208v95l219 131h88v-775h-94v676zM240 0l835 1434h105l-836 -1434h-104zM918 213q0 71 42 122.5t115 78.5q-117 50 -117 168q0 91 74.5 146.5t186.5 55.5q114 0 188 -55.5t74 -146.5q0 -118 -117 -168q74 -27 116 -78t42 -123q0 -102 -86.5 -162.5t-216.5 -60.5 q-128 0 -214.5 61t-86.5 162zM1012 221q0 -66 58.5 -109.5t148.5 -43.5q91 0 149.5 43.5t58.5 109.5q0 70 -58 111t-150 41t-149.5 -41t-57.5 -111zM1047 571q0 -58 48.5 -92.5t123.5 -34.5q77 0 125.5 34.5t48.5 92.5q0 63 -49 99.5t-125 36.5q-75 0 -123.5 -36.5 t-48.5 -99.5z" />
<glyph unicode="&#x215c;" horiz-adv-x="1697" d="M53 709v88q100 -66 226 -66q84 0 147 48t63 128q0 76 -54 121t-148 45q-45 0 -92 -14v63l235 232h-344v80h469v-68l-229 -225q48 -2 91.5 -16.5t81.5 -41.5t60.5 -73t22.5 -105q0 -114 -84 -185t-213 -71q-144 0 -232 60zM346 0l836 1434h104l-835 -1434h-105zM1026 213 q0 71 42.5 122.5t115.5 78.5q-117 50 -117 168q0 91 74 146.5t186 55.5q114 0 188 -55.5t74 -146.5q0 -118 -116 -168q74 -27 115.5 -78t41.5 -123q0 -102 -86.5 -162.5t-216.5 -60.5q-128 0 -214.5 61t-86.5 162zM1120 221q0 -66 58.5 -109.5t148.5 -43.5q91 0 150 43.5 t59 109.5q0 69 -58.5 110.5t-150.5 41.5t-149.5 -41t-57.5 -111zM1155 571q0 -58 48.5 -92.5t123.5 -34.5q77 0 125.5 34.5t48.5 92.5q0 63 -49 99.5t-125 36.5q-75 0 -123.5 -36.5t-48.5 -99.5z" />
<glyph unicode="&#x215d;" horiz-adv-x="1722" d="M76 702v91q110 -62 217 -62q94 0 156.5 50t62.5 128q0 71 -58.5 119.5t-154.5 48.5q-116 0 -193 -30l52 387h397v-80h-326l-26 -213q43 12 114 12q125 0 207 -67.5t82 -176.5q0 -117 -89 -188.5t-220 -71.5q-126 0 -221 53zM369 0l835 1434h105l-836 -1434h-104z M1049 213q0 71 42 122.5t115 78.5q-116 50 -116 168q0 91 74 146.5t186 55.5q114 0 188 -55.5t74 -146.5q0 -118 -117 -168q74 -27 116 -78t42 -123q0 -102 -86.5 -162.5t-216.5 -60.5q-128 0 -214.5 61t-86.5 162zM1143 221q0 -66 58.5 -109.5t148.5 -43.5q91 0 150 43.5 t59 109.5q0 69 -58.5 110.5t-150.5 41.5t-149.5 -41t-57.5 -111zM1178 571q0 -58 48.5 -92.5t123.5 -34.5q77 0 125.5 34.5t48.5 92.5q0 63 -49 99.5t-125 36.5q-75 0 -123.5 -36.5t-48.5 -99.5z" />
<glyph unicode="&#x215e;" horiz-adv-x="1572" d="M61 1354v80h517v-72l-357 -703h-104l356 695h-412zM221 0l836 1434h104l-835 -1434h-105zM901 213q0 71 42.5 122.5t115.5 78.5q-117 50 -117 168q0 91 74 146.5t186 55.5q114 0 188 -55.5t74 -146.5q0 -118 -116 -168q74 -27 115.5 -78t41.5 -123q0 -102 -86.5 -162.5 t-216.5 -60.5q-128 0 -214.5 61t-86.5 162zM995 221q0 -66 58.5 -109.5t148.5 -43.5q91 0 150 43.5t59 109.5q0 69 -58.5 110.5t-150.5 41.5t-149.5 -41t-57.5 -111zM1030 571q0 -58 48.5 -92.5t123.5 -34.5q77 0 125.5 34.5t48.5 92.5q0 63 -49 99.5t-125 36.5 q-75 0 -123.5 -36.5t-48.5 -99.5z" />
<glyph unicode="&#x215f;" horiz-adv-x="839" d="M51 1208v95l219 131h88v-775h-94v676zM240 0l835 1434h105l-836 -1434h-104z" />
<glyph unicode="&#x2190;" horiz-adv-x="1486" d="M135 549l379 414h113l-334 -371h1022v-86h-1022l334 -373h-113z" />
<glyph unicode="&#x2191;" horiz-adv-x="1169" d="M170 688v115l416 377l413 -377v-115l-370 336v-1024h-86v1024z" />
<glyph unicode="&#x2192;" horiz-adv-x="1486" d="M170 506v86h1024l-336 371h115l377 -414l-377 -416h-115l336 373h-1024z" />
<glyph unicode="&#x2193;" horiz-adv-x="1169" d="M170 360v113l373 -336v1026h86v-1026l370 336v-113l-413 -376z" />
<glyph unicode="&#x2202;" d="M111 414q0 207 142 352t351 145q155 0 267 -74t161 -180q6 37 6 88q0 92 -18 179.5t-56.5 166t-93 137.5t-132 93.5t-169.5 34.5q-154 0 -293 -86v94q128 84 302 84q168 0 294.5 -89t194.5 -250.5t68 -373.5q0 -91 -13.5 -179t-40.5 -174.5t-73.5 -159t-108.5 -128.5 t-149 -87.5t-191 -31.5q-193 0 -320.5 123t-127.5 316zM213 428q0 -158 99.5 -259t250.5 -101q177 0 297 121t156 323q-41 135 -149 221t-251 86q-165 0 -284 -111.5t-119 -279.5z" />
<glyph unicode="&#x2206;" horiz-adv-x="1523" d="M68 0l649 1434h94l647 -1434h-1390zM213 94h1098l-547 1213z" />
<glyph unicode="&#x220f;" horiz-adv-x="1540" d="M145 1339v95h1252v-95h-234v-1597h-102v1597h-580v-1597h-102v1597h-234z" />
<glyph unicode="&#x2211;" horiz-adv-x="1216" d="M129 0v76l547 641l-541 641v76h983v-95h-839l501 -596v-53l-504 -596h844v-94h-991z" />
<glyph unicode="&#x2212;" horiz-adv-x="1198" d="M143 616v93h912v-93h-912z" />
<glyph unicode="&#x2215;" horiz-adv-x="1030" d="M57 0l838 1434h104l-837 -1434h-105z" />
<glyph unicode="&#x2219;" horiz-adv-x="452" d="M143 463q0 34 24 58t58 24t58 -24t24 -58t-24 -58t-58 -24t-58 24t-24 58z" />
<glyph unicode="&#x221a;" horiz-adv-x="1345" d="M-25 879v90h353l370 -838l490 1303h102l-549 -1434h-88l-391 879h-287z" />
<glyph unicode="&#x221e;" horiz-adv-x="1632" d="M123 649q0 141 91 233.5t230 92.5q110 0 199 -67.5t172 -180.5q38 53 71 90.5t80 77t102.5 60t117.5 20.5q144 0 231.5 -94t87.5 -232q0 -140 -88 -233.5t-231 -93.5q-59 0 -112 19.5t-100 58t-82 76t-79 93.5q-40 -54 -74.5 -92.5t-81 -76.5t-100 -58t-113.5 -20 q-142 0 -231.5 90.5t-89.5 236.5zM219 649q0 -45 13.5 -86.5t40.5 -77t74 -56.5t108 -21q47 0 91 19.5t84.5 59.5t67 73t64.5 87q-38 54 -65 88t-67.5 74.5t-84.5 60t-92 19.5q-61 0 -108 -21.5t-73.5 -57t-39.5 -76.5t-13 -85zM864 647q39 -54 66.5 -87t68.5 -73 t85.5 -59.5t91.5 -19.5q60 0 106.5 21t73.5 56.5t40 77t13 86.5q0 95 -58.5 167.5t-174.5 72.5q-48 0 -92.5 -19.5t-84 -57.5t-69.5 -75t-66 -90z" />
<glyph unicode="&#x222b;" horiz-adv-x="1015" d="M-166 -291q72 -35 152 -35q118 0 191.5 81.5t96.5 236.5l164 1073q30 190 118.5 286.5t250.5 96.5q103 0 170 -33v-96q-76 37 -154 37q-121 0 -190.5 -72.5t-95.5 -239.5l-166 -1075q-27 -174 -119.5 -280.5t-251.5 -106.5q-91 0 -166 35v92z" />
<glyph unicode="&#x2248;" horiz-adv-x="1359" d="M143 334v98q31 39 102 64.5t152 25.5q68 0 145 -18.5t136 -41t137 -41t146 -18.5q161 0 256 99v-99q-33 -39 -103 -64.5t-153 -25.5q-68 0 -146 18.5t-137 41t-136 41t-145 18.5q-160 0 -254 -98zM143 803v98q31 39 102 64.5t152 25.5q68 0 145 -18.5t136 -40t137 -40 t146 -18.5q161 0 256 99v-101q-33 -39 -103 -64.5t-153 -25.5q-68 0 -146 18.5t-137 41t-136 41t-145 18.5q-160 0 -254 -98z" />
<glyph unicode="&#x2260;" horiz-adv-x="1247" d="M143 383v90h332l197 377h-529v90h578l135 252h94l-135 -252h289v-90h-336l-199 -377h535v-90h-582l-133 -256h-94l131 256h-283z" />
<glyph unicode="&#x2264;" horiz-adv-x="1247" d="M143 135v90h959v-90h-959zM143 731v88l961 385v-100l-846 -330l846 -330v-102z" />
<glyph unicode="&#x2265;" horiz-adv-x="1247" d="M143 135v90h961v-90h-961zM143 342v102l846 330l-846 330v100l961 -385v-88z" />
<glyph unicode="&#x22c5;" horiz-adv-x="458" d="M147 780q0 34 24 58t58 24t58 -24t24 -58t-24 -58t-58 -24t-58 24t-24 58z" />
<glyph unicode="&#x25ca;" horiz-adv-x="1144" d="M104 717l420 717h99l417 -717l-417 -717h-99zM217 717l356 -613l355 613l-357 612z" />
<glyph unicode="&#x25fc;" horiz-adv-x="983" d="M0 0v983h983v-983h-983z" />
<glyph unicode="&#xf401;" horiz-adv-x="40" d="M-844 1563l197 266h133l-223 -266h-107z" />
<glyph unicode="&#xf639;" d="M109 717q0 208 65.5 376.5t189 267.5t281.5 99t282 -99t190.5 -268t66.5 -376q0 -208 -66.5 -377t-190.5 -268t-282 -99t-281.5 99.5t-189 268t-65.5 376.5zM209 717q0 -184 54.5 -332t154 -232.5t227.5 -84.5q125 0 225 84.5t155.5 232.5t55.5 332q0 183 -55.5 330.5 t-155.5 232t-225 84.5q-128 0 -228 -84.5t-154 -232t-54 -330.5z" />
<glyph unicode="&#xf63a;" d="M162 0l2 80l502 485q65 63 105 104.5t81.5 92.5t63 93t35.5 92t14 104q0 138 -96.5 223.5t-256.5 85.5q-131 0 -231 -53.5t-188 -147.5v125q174 174 430 174q195 0 320.5 -110.5t125.5 -288.5q0 -75 -18.5 -140t-61.5 -131.5t-96.5 -127t-140.5 -144.5l-435 -422h809v-94 h-964z" />
<glyph unicode="&#xf63b;" d="M158 80v110q74 -55 178.5 -86.5t224.5 -31.5q114 0 212.5 42t163 129t64.5 203q0 160 -116.5 259.5t-309.5 99.5q-65 0 -145 -17v72l481 479h-688v95h830v-76l-467 -467q78 -1 152.5 -19t140.5 -54.5t116 -88.5t79.5 -125t29.5 -158q0 -139 -71.5 -247.5t-193 -166 t-270.5 -57.5q-244 0 -411 105z" />
<glyph unicode="&#xf63c;" d="M80 414v84l792 936h99v-926h241v-94h-241v-414h-103v414h-788zM205 508h663v782z" />
<glyph unicode="&#xf63d;" d="M164 70v106q170 -104 391 -104q198 0 327.5 106t129.5 266q0 154 -121 254.5t-320 100.5q-186 0 -344 -58l95 693h692v-95h-613l-65 -475q97 31 258 31q222 0 371 -128t149 -323q0 -204 -159 -336.5t-398 -132.5q-226 0 -393 95z" />
<glyph unicode="&#xf63e;" d="M150 645q0 230 73.5 414t214.5 291.5t326 107.5q169 0 299 -88v-100q-137 90 -291 90q-128 0 -229.5 -58t-164 -157.5t-94.5 -225t-32 -268.5q54 110 172.5 183t273.5 73q194 0 329.5 -127.5t135.5 -324.5q0 -209 -137.5 -344.5t-341.5 -135.5q-246 0 -390 176t-144 494z M260 500q22 -203 128 -315.5t294 -112.5q159 0 269 108.5t110 272.5q0 160 -111 259t-274 99q-140 0 -256 -89.5t-160 -221.5z" />
<glyph unicode="&#xf63f;" d="M197 1339v95h921v-76l-690 -1358h-109l678 1339h-800z" />
<glyph unicode="&#xf640;" d="M106 385q0 143 89 240t243 135q-118 39 -188 125.5t-70 204.5q0 164 131.5 266t333.5 102q199 0 331 -102t132 -266q0 -119 -69.5 -205t-188.5 -125q154 -38 243 -135t89 -240q0 -122 -71.5 -216.5t-193 -144t-272.5 -49.5t-273 49.5t-194 144t-72 216.5zM211 391 q0 -137 124.5 -228t307.5 -91q184 0 309 91t125 228q0 139 -124 227.5t-310 88.5q-184 0 -308 -88.5t-124 -227.5zM283 1083q0 -121 103.5 -200.5t260.5 -79.5q153 0 256 79.5t103 200.5q0 124 -102 200.5t-257 76.5q-159 0 -261.5 -76.5t-102.5 -200.5z" />
<glyph unicode="&#xf641;" d="M125 979q0 209 137.5 344t341.5 135q247 0 391 -176t144 -494q0 -172 -43.5 -321t-121.5 -258t-194.5 -171.5t-255.5 -62.5q-169 0 -299 88v101q136 -92 291 -92q103 0 189.5 38t146.5 104.5t102 156.5t61.5 193.5t20.5 217.5q-54 -110 -173 -183t-273 -73 q-194 0 -329.5 128t-135.5 325zM227 981q0 -160 111 -259t274 -99q140 0 256 89.5t160 221.5q-22 203 -128 314.5t-294 111.5q-160 0 -269.5 -107.5t-109.5 -271.5z" />
<glyph unicode="&#xf643;" d="M123 487q0 102 37.5 195.5t104 165t165 114t213.5 42.5q116 0 215 -42.5t165.5 -114t104 -165t37.5 -195.5q0 -101 -37.5 -194t-104 -163.5t-165.5 -112.5t-215 -42q-115 0 -213.5 42t-165 112.5t-104 163.5t-37.5 194zM225 487q0 -177 120 -298t298 -121t299 121 t121 298q0 180 -121 302t-299 122t-298 -122t-120 -302z" />
<glyph unicode="&#xf644;" d="M217 0v94h408v772l-328 -198v100l336 211h94v-885h393v-94h-903z" />
<glyph unicode="&#xf645;" d="M188 0v78q125 68 189 106q224 132 270 162q48 30 75.5 48.5t72 54t68.5 65t43.5 70.5t19.5 82q0 109 -83.5 174t-224.5 65q-218 0 -409 -176v113q178 162 416 162q183 0 293 -91.5t110 -234.5q0 -54 -19 -104.5t-49 -90.5t-74 -79t-86 -67.5t-93 -57.5 q-38 -22 -121.5 -68.5t-144 -80.5t-62.5 -36h708v-94h-899z" />
<glyph unicode="&#xf646;" d="M147 -203q159 -119 406 -119q84 0 162 24t140 68t99 114.5t37 156.5q0 157 -115.5 249.5t-308.5 92.5q-88 0 -145 -14v71l475 443h-684v96h827v-76l-462 -434q76 0 149.5 -16t140 -51t117 -84.5t80 -120.5t29.5 -156q0 -138 -72 -243.5t-193 -160.5t-270 -55 q-245 0 -412 105v110z" />
<glyph unicode="&#xf647;" d="M80 0v82l792 897h97v-885h243v-94h-243v-410h-101v410h-788zM207 94h661v744z" />
<glyph unicode="&#xf648;" d="M162 -217q168 -105 387 -105q197 0 327 107t130 266q0 151 -120 246.5t-319 95.5q-179 0 -344 -59l90 645h691v-96h-609l-61 -422q123 28 256 28q223 0 370.5 -122t147.5 -316q0 -204 -159 -336.5t-398 -132.5q-227 0 -389 94v107z" />
<glyph unicode="&#xf649;" d="M150 645q0 230 73.5 414t214.5 291.5t326 107.5q169 0 299 -88v-100q-137 90 -291 90q-128 0 -229.5 -58t-164 -157.5t-94.5 -225t-32 -268.5q54 110 172.5 183t273.5 73q194 0 329.5 -127.5t135.5 -324.5q0 -209 -137.5 -344.5t-341.5 -135.5q-246 0 -390 176t-144 494z M260 500q22 -203 128 -315.5t294 -112.5q159 0 269 108.5t110 272.5q0 160 -111 259t-274 99q-140 0 -256 -89.5t-160 -221.5z" />
<glyph unicode="&#xf64a;" d="M180 883v96h922v-78l-666 -1311h-104l655 1293h-807z" />
<glyph unicode="&#xf64b;" d="M106 385q0 143 89 240t243 135q-118 39 -188 125.5t-70 204.5q0 164 131.5 266t333.5 102q199 0 331 -102t132 -266q0 -119 -69.5 -205t-188.5 -125q154 -38 243 -135t89 -240q0 -122 -71.5 -216.5t-193 -144t-272.5 -49.5t-273 49.5t-194 144t-72 216.5zM211 391 q0 -137 124.5 -228t307.5 -91q184 0 309 91t125 228q0 139 -124 227.5t-310 88.5q-184 0 -308 -88.5t-124 -227.5zM283 1083q0 -121 103.5 -200.5t260.5 -79.5q153 0 256 79.5t103 200.5q0 124 -102 200.5t-257 76.5q-159 0 -261.5 -76.5t-102.5 -200.5z" />
<glyph unicode="&#xf64c;" d="M127 524q0 209 137 344.5t342 135.5q245 0 389 -176t144 -494q0 -346 -164.5 -549t-448.5 -203q-169 0 -299 88v101q134 -93 291 -93q130 0 230 48.5t162.5 136.5t94.5 205t33 260q-54 -110 -173 -183t-273 -73q-194 0 -329.5 127.5t-135.5 324.5zM229 526 q0 -161 110.5 -259.5t274.5 -98.5q138 0 255 89.5t161 219.5q-24 204 -129.5 316t-292.5 112q-161 0 -270 -107.5t-109 -271.5z" />
<glyph unicode="&#xf64e;" horiz-adv-x="1171" d="M70 326v80h139q-6 41 -6 83q0 35 6 72h-139v80h157q40 164 175 263.5t321 99.5q166 0 295 -76v-97q-138 80 -283 80q-143 0 -251.5 -72.5t-151.5 -197.5h473v-80h-492q-6 -35 -6 -74q0 -48 8 -81h490v-80h-469q42 -120 150 -189t249 -69q170 0 301 92v-99 q-133 -86 -315 -86q-183 0 -315 95t-177 256h-159z" />
<glyph unicode="&#xf653;" horiz-adv-x="1011" d="M96 80v106q64 -44 172.5 -81t231.5 -37q141 0 224 50t83 138q0 34 -17 61.5t-42 46.5t-73 37t-89 29.5t-111 28.5q-63 15 -108 29.5t-93.5 37.5t-78 51t-49 68.5t-19.5 91.5q0 113 83.5 183.5t240.5 80.5v218h98v-218q186 -10 311 -88v-102q-71 44 -163 72t-185 28 q-143 0 -214 -48t-71 -126q0 -29 10.5 -53.5t31.5 -42.5t45 -31.5t60 -25t66.5 -20t72.5 -18.5q4 -1 7 -1.5t6 -1.5q52 -12 81.5 -20t76 -23t73.5 -28.5t59.5 -36t50 -47t30 -59t12.5 -75.5q0 -120 -100.5 -193t-259.5 -84v-217h-98v217q-110 6 -205.5 35.5t-149.5 67.5z " />
<glyph unicode="&#xf6c3;" horiz-adv-x="464" d="M133 -451l113 347h110l-137 -347h-86z" />
<glyph unicode="&#xf6d4;" horiz-adv-x="1028" d="M203 1438h92q0 -93 61 -151t168 -58q101 0 163.5 59t62.5 150h90q0 -128 -91.5 -210.5t-224.5 -82.5q-146 0 -232.5 80.5t-88.5 212.5z" />
<glyph unicode="&#xf6dc;" d="M205 0v94h420v1229l-330 -201v103l338 209h94v-1340h401v-94h-923z" />
<glyph unicode="&#xf721;" horiz-adv-x="1085" d="M139 344v80h803v-80h-506q-49 -20 -86 -56t-37 -79q0 -67 70 -104t211 -37q179 0 305 55v-94q-144 -54 -313 -54q-175 0 -276 55.5t-101 159.5q0 93 92 154h-162zM139 571v80h543q46 20 77.5 52t31.5 73q0 135 -273 135q-171 0 -295 -59v94q134 58 314 58 q166 0 261 -55.5t95 -155.5q0 -48 -22.5 -85t-57.5 -57h129v-80h-803z" />
<glyph unicode="&#xf722;" horiz-adv-x="1185" d="M88 137v80h152v141h-152v86h152v535h479q168 0 261 -87t93 -226q0 -142 -94.5 -225t-263.5 -83h-375v-141h436v-80h-436v-137h-100v137h-152zM340 444h360q131 0 202 57.5t71 164.5t-71 165t-202 58h-360v-445z" />
<glyph unicode="&#xf725;" horiz-adv-x="1116" d="M127 0v90h55q22 0 38 11t24 25.5t12.5 39.5t5 41.5t0.5 42.5v119h-135v88h135v149q0 197 107 297.5t307 100.5q174 0 305 -82v-99q-134 88 -295 88q-163 0 -243.5 -77t-80.5 -242v-135h506v-88h-506v-174q0 -65 -43 -105h668v-90h-860z" />
<glyph unicode="&#xf727;" horiz-adv-x="1124" d="M100 979h119l344 -434l344 434h117l-385 -481h299v-80h-326v-156h326v-80h-326v-182h-100v182h-328v80h328v156h-328v80h299z" />
<glyph unicode="&#xf730;" horiz-adv-x="1263" d="M111 487q0 102 37.5 195.5t104 165t165 114t213.5 42.5q116 0 215 -42.5t165.5 -114t104 -165t37.5 -195.5q0 -101 -37.5 -194t-104 -163.5t-165.5 -112.5t-215 -42q-115 0 -213.5 42t-165 112.5t-104 163.5t-37.5 194zM213 487q0 -177 120 -298t298 -121t299 121 t121 298q0 180 -121 302t-299 122t-298 -122t-120 -302z" />
<glyph unicode="&#xf731;" horiz-adv-x="727" d="M76 668v100l338 211h94v-979h-102v866z" />
<glyph unicode="&#xf732;" horiz-adv-x="1148" d="M119 0v78q113 61 188 106q235 139 271 162q48 30 75.5 48.5t71.5 54t68.5 65t43.5 70.5t19 82q0 109 -83 174t-224 65q-219 0 -410 -176v113q178 162 416 162q183 0 293 -91.5t110 -234.5q0 -54 -19 -104.5t-49 -90.5t-74 -79t-86 -67.5t-93 -57.5q-38 -22 -121.5 -68.5 t-144 -80.5t-62.5 -36h709v-94h-899z" />
<glyph unicode="&#xf733;" horiz-adv-x="1128" d="M59 -203q159 -119 406 -119q84 0 162 24t140 68t99 114.5t37 156.5q0 157 -115.5 249.5t-308.5 92.5q-88 0 -145 -14v71l475 443h-684v96h827v-76l-463 -434q76 0 149.5 -16t140.5 -51t117 -84.5t80 -121t30 -155.5q0 -138 -72 -243.5t-193 -160.5t-270 -55 q-245 0 -412 105v110z" />
<glyph unicode="&#xf734;" horiz-adv-x="1286" d="M80 0v82l792 897h97v-885h243v-94h-243v-410h-101v410h-788zM207 94h661v744z" />
<glyph unicode="&#xf735;" horiz-adv-x="1212" d="M139 -217q168 -105 387 -105q197 0 327 107t130 266q0 151 -119.5 246.5t-318.5 95.5q-179 0 -344 -59l90 645h690v-96h-608l-62 -422q123 28 256 28q223 0 370.5 -122t147.5 -316q0 -204 -159 -336.5t-398 -132.5q-227 0 -389 94v107z" />
<glyph unicode="&#xf736;" horiz-adv-x="1306" d="M152 645q0 230 73.5 414t214.5 291.5t326 107.5q169 0 299 -88v-100q-137 90 -291 90q-128 0 -229.5 -58t-164 -157.5t-94.5 -225t-32 -268.5q54 110 172.5 183t273.5 73q194 0 329.5 -127.5t135.5 -324.5q0 -209 -137.5 -344.5t-341.5 -135.5q-246 0 -390 176t-144 494z M262 500q22 -203 128 -315.5t294 -112.5q159 0 269 108.5t110 272.5q0 160 -111 259t-274 99q-140 0 -256 -89.5t-160 -221.5z" />
<glyph unicode="&#xf737;" horiz-adv-x="1087" d="M92 883v96h922v-78l-666 -1311h-104l655 1293h-807z" />
<glyph unicode="&#xf738;" horiz-adv-x="1323" d="M123 385q0 143 89 240t243 135q-118 39 -188 125.5t-70 204.5q0 164 131.5 266t333.5 102q199 0 330.5 -102t131.5 -266q0 -119 -69.5 -205t-188.5 -125q154 -38 243 -135t89 -240q0 -184 -153 -297t-383 -113q-151 0 -273 49.5t-194 144t-72 216.5zM227 391 q0 -137 124.5 -228t307.5 -91q184 0 309.5 91t125.5 228q0 139 -124.5 227.5t-310.5 88.5q-184 0 -308 -88.5t-124 -227.5zM299 1083q0 -121 104 -200.5t261 -79.5q153 0 255.5 79.5t102.5 200.5q0 124 -101.5 200.5t-256.5 76.5q-159 0 -262 -76.5t-103 -200.5z" />
<glyph unicode="&#xf739;" horiz-adv-x="1306" d="M141 524q0 209 137 344.5t343 135.5q245 0 388.5 -176t143.5 -494q0 -347 -164 -549.5t-448 -202.5q-169 0 -299 88v101q134 -93 290 -93q130 0 230 48.5t163 136.5t95 205t33 260q-54 -110 -173.5 -183t-273.5 -73q-194 0 -329.5 127.5t-135.5 324.5zM244 526 q0 -161 110.5 -259.5t274.5 -98.5q138 0 254.5 89.5t160.5 219.5q-24 204 -129 316t-292 112q-161 0 -270 -107.5t-109 -271.5z" />
<glyph unicode="&#xfeff;" horiz-adv-x="0" />
<glyph horiz-adv-x="1296" d="M111 487q0 137 60.5 254t176 190t262.5 73q131 0 234 -53.5t168 -143.5v172h100v-979h-100v170q-65 -89 -168 -142t-234 -53q-147 0 -262.5 72t-176 188t-60.5 252zM215 487q0 -177 118.5 -298t295.5 -121q124 0 228.5 66.5t154.5 172.5v363q-51 105 -155 173t-228 68 q-177 0 -295.5 -122t-118.5 -302zM334 1225q5 93 47.5 147.5t112.5 54.5q47 0 101.5 -31t104 -62t82.5 -31q42 0 60.5 30.5t23.5 83.5h78q-3 -93 -44.5 -149t-111.5 -56q-47 0 -102 32t-105 63.5t-85 31.5q-72 0 -84 -114h-78z" />
<glyph horiz-adv-x="2578" d="M213 0v1434h1100v-1262l958 1262h92v-1434h-102v1266l-963 -1266h-88v1339h-895v-1339h-102z" />
<glyph horiz-adv-x="2004" d="M182 0v979h856v-829l691 829h92v-979h-101v827l-688 -827h-94v889h-655v-889h-101z" />
<glyph horiz-adv-x="2220" d="M74 1339v95h1190v-623q65 81 172 137t241 56q188 0 283.5 -106.5t95.5 -301.5v-596h-100v575q0 82 -20.5 144.5t-51 97.5t-74 56.5t-82 28.5t-81.5 7q-112 0 -221 -67.5t-162 -155.5v-686h-101v1339h-475v-1339h-102v1339h-512z" />
<glyph horiz-adv-x="1167" d="M57 889v90h201v190q0 130 67.5 204.5t194.5 74.5q115 0 193 -41v-94q-80 43 -172 43q-89 0 -136 -54.5t-47 -154.5v-168h598v-1112q0 -79 -21.5 -136.5t-60 -88.5t-83 -45.5t-97.5 -14.5q-98 0 -159 37v94q66 -39 141 -39q180 0 180 209v1006h-498v-889h-100v889h-201z M823 1323q0 34 24 58t58 24t58 -24t24 -58t-24 -58t-58 -24t-58 24t-24 58z" />
<glyph horiz-adv-x="1296" d="M111 487q0 137 60.5 254t176 190t262.5 73q131 0 234 -53.5t168 -143.5v172h100v-979h-100v170q-65 -89 -168 -142t-234 -53q-147 0 -262.5 72t-176 188t-60.5 252zM215 487q0 -177 118.5 -298t295.5 -121q124 0 228.5 66.5t154.5 172.5v363q-51 105 -155 173t-228 68 q-177 0 -295.5 -122t-118.5 -302zM358 1321q0 32 23 55t55 23t55 -23t23 -55t-23 -55t-55 -23t-55 23t-23 55zM750 1321q0 32 22.5 55t54.5 23t55 -23t23 -55t-23 -55t-55 -23t-54.5 23t-22.5 55z" />
<glyph d="M123 326v80h139q-6 41 -6 83q0 35 6 72h-139v80h158q40 164 174.5 263.5t320.5 99.5q166 0 295 -76v-97q-138 80 -283 80q-143 0 -251.5 -72.5t-151.5 -197.5h473v-80h-491q-7 -40 -7 -74q0 -43 9 -81h489v-80h-469q42 -120 150 -189t249 -69q171 0 302 92v-99 q-133 -86 -316 -86t-314.5 95t-176.5 256h-160z" />
<glyph horiz-adv-x="1296" d="M111 487q0 137 60.5 254t176 190t262.5 73q131 0 234 -53.5t168 -143.5v172h100v-979h-100v170q-65 -89 -168 -142t-234 -53q-147 0 -262.5 72t-176 188t-60.5 252zM215 487q0 -177 118.5 -298t295.5 -121q124 0 228.5 66.5t154.5 172.5v363q-51 105 -155 173t-228 68 q-177 0 -295.5 -122t-118.5 -302zM418 1448h137l197 -266h-107z" />
<glyph horiz-adv-x="1296" d="M111 487q0 137 60.5 254t176 190t262.5 73q131 0 234 -53.5t168 -143.5v172h100v-979h-100v170q-65 -89 -168 -142t-234 -53q-147 0 -262.5 72t-176 188t-60.5 252zM215 487q0 -177 118.5 -298t295.5 -121q124 0 228.5 66.5t154.5 172.5v363q-51 105 -155 173t-228 68 q-177 0 -295.5 -122t-118.5 -302zM526 1182l197 266h133l-223 -266h-107z" />
<glyph d="M123 139v80h162v760h772v-90h-672v-371h543v-88h-543v-211h287v-80h-287v-139h-100v139h-162z" />
<glyph horiz-adv-x="1114" d="M207 1839h92q0 -94 63 -152.5t170 -58.5q103 0 166.5 59t63.5 152h90q0 -131 -91.5 -213t-228.5 -82q-148 0 -235.5 80.5t-89.5 214.5z" />
<glyph horiz-adv-x="694" d="M182 0v1169q0 130 67.5 204.5t194.5 74.5q115 0 193 -41v-94q-80 43 -172 43q-89 0 -135.5 -54.5t-46.5 -154.5v-168h354v-90h-354v-889h-101z" />
<glyph horiz-adv-x="980" d="M-14 1321q0 32 22.5 55t54.5 23t55 -23t23 -55t-23 -55t-55 -23t-54.5 23t-22.5 55zM209 0v979h100v-979h-100zM414 1321q0 32 23 55t55 23t54.5 -23t22.5 -55t-22.5 -55t-54.5 -23t-55 23t-23 55zM672 0v979h98v-979h-98zM840 1321q0 32 23 55t55 23t54.5 -23t22.5 -55 t-22.5 -55t-54.5 -23t-55 23t-23 55z" />
<glyph horiz-adv-x="2031" d="M182 0v979h101v-829l690 829h92v-829l690 829h92v-979h-100v827l-688 -827h-94v827l-689 -827h-94zM1085 1438h93q0 -94 61 -152.5t168 -58.5q101 0 163 59t62 152h90q0 -130 -90.5 -212.5t-224.5 -82.5q-147 0 -234.5 81t-87.5 214z" />
<glyph d="M184 979h119l344 -434l344 434h117l-385 -481h299v-80h-326v-156h326v-80h-326v-182h-100v182h-328v80h328v156h-328v80h299z" />
<glyph d="M43 618v93h174v268h483q156 0 248 -73t107 -195h166v-93h-166q-14 -125 -107.5 -196.5t-249.5 -71.5h-381v-350h-100v618h-174zM317 440h367q129 0 200.5 59.5t71.5 166.5q0 106 -71.5 164.5t-200.5 58.5h-367v-449z" />
<glyph horiz-adv-x="1296" d="M111 487q0 137 60.5 254t176 190t262.5 73q131 0 234 -53.5t168 -143.5v172h100v-979h-100v170q-65 -89 -168 -142t-234 -53q-147 0 -262.5 72t-176 188t-60.5 252zM215 487q0 -177 118.5 -298t295.5 -121q124 0 228.5 66.5t154.5 172.5v363q-51 105 -155 173t-228 68 q-177 0 -295.5 -122t-118.5 -302zM358 1180l224 268h106l221 -268h-108l-168 200l-166 -200h-109z" />
<glyph d="M150 547v94h970v-94h-606q-182 -100 -182 -248q0 -110 89 -168.5t265 -58.5q92 0 186 22t166 58v-103q-151 -74 -362 -74q-216 0 -332.5 82.5t-116.5 225.5q0 161 140 264h-217zM150 829v95h661q143 88 143 219q0 105 -86 161t-256 56q-176 0 -338 -72v101q145 69 344 69 q217 0 330 -82t113 -223q0 -137 -113 -229h172v-95h-970z" />
<glyph horiz-adv-x="1296" d="M111 487q0 137 60.5 254t176 190t262.5 73q131 0 234 -53.5t168 -143.5v172h100v-979h-100v170q-65 -89 -168 -142t-234 -53q-147 0 -262.5 72t-176 188t-60.5 252zM215 487q0 -177 118.5 -298t295.5 -121q124 0 228.5 66.5t154.5 172.5v363q-51 105 -155 173t-228 68 q-177 0 -295.5 -122t-118.5 -302zM438 1321q0 79 57 135.5t138 56.5q78 0 133 -57t55 -135t-55 -134.5t-133 -56.5q-81 0 -138 56.5t-57 134.5zM508 1321q0 -51 36 -86t89 -35q51 0 87 35t36 86q0 53 -35.5 88t-87.5 35q-53 0 -89 -35t-36 -88z" />
<glyph horiz-adv-x="1296" d="M111 487q0 137 60.5 254t176 190t262.5 73q131 0 234 -53.5t168 -143.5v172h100v-979h-100v170q-65 -89 -168 -142t-234 -53q-147 0 -262.5 72t-176 188t-60.5 252zM215 487q0 -177 118.5 -298t295.5 -121q124 0 228.5 66.5t154.5 172.5v363q-51 105 -155 173t-228 68 q-177 0 -295.5 -122t-118.5 -302zM406 1278v82h477v-82h-477z" />
<glyph horiz-adv-x="2631" d="M213 0v1434h102v-1262l959 1262h92v-1262l958 1262h93v-1434h-103v1266l-962 -1266h-88v1266l-963 -1266h-88zM1516 1839h92q0 -94 63 -153.5t170 -59.5q103 0 166.5 60t63.5 153h90q0 -131 -91.5 -213t-228.5 -82q-148 0 -235.5 80t-89.5 215z" />
<glyph d="M221 344v80h803v-80h-506q-49 -20 -86 -56t-37 -79q0 -67 70 -104t211 -37q179 0 305 55v-94q-144 -54 -313 -54q-175 0 -276 55.5t-101 159.5q0 93 92 154h-162zM221 571v80h543q45 20 76.5 52t31.5 73q0 135 -272 135q-171 0 -295 -59v94q134 58 313 58 q166 0 261.5 -55.5t95.5 -155.5q0 -48 -22.5 -85t-57.5 -57h129v-80h-803z" />
<glyph d="M178 0v90h55q22 0 38 11t24 25.5t12.5 39.5t5 41.5t0.5 42.5v119h-135v88h135v149q0 197 107 297.5t307 100.5q174 0 305 -82v-99q-134 88 -295 88q-163 0 -243 -77t-80 -242v-135h506v-88h-506v-174q0 -65 -43 -105h667v-90h-860z" />
<glyph horiz-adv-x="1062" d="M231 1599q5 92 46.5 146.5t111.5 54.5q37 0 80 -19t75 -42.5t70 -42.5t66 -19q43 0 61 30t25 85h78q-5 -93 -46.5 -149t-113.5 -56q-45 0 -100 32.5t-105 64.5t-84 32q-74 0 -86 -117h-78z" />
<glyph horiz-adv-x="1290" d="M35 537v92h176q-2 33 -2 98q0 47 8 129h-182v94h198q57 232 221.5 370t403.5 138q214 0 363 -106v-107q-160 115 -357 115q-194 0 -333.5 -109.5t-190.5 -300.5h559v-94h-577q-11 -75 -11 -129q0 -44 4 -98h584v-92h-569q39 -214 180.5 -339.5t353.5 -125.5q112 0 213 37 t176 108v-113q-160 -129 -395 -129q-250 0 -422 153t-213 409h-188z" />
<glyph horiz-adv-x="1284" d="M162 0v94h49q94 0 94 162v365h-143v94h143v289q0 218 118.5 336t334.5 118q191 0 334 -94v-104q-61 47 -147.5 73.5t-176.5 26.5q-176 0 -269 -94t-93 -275v-276h598v-94h-598v-418q0 -38 -14 -67t-34 -42h740v-94h-936z" />
<glyph d="M72 1434h118l455 -676l455 676h117l-484 -715h404v-94h-443v-228h443v-94h-443v-303h-102v303h-438v94h438v228h-438v94h399z" />
<glyph d="M100 129v117q80 -70 220 -122t296 -52q185 0 303.5 83t118.5 222q0 60 -25 108t-52 76t-97 58.5t-106.5 42t-134.5 39.5q-8 3 -13 4q-59 17 -96.5 29t-87 29.5t-81 34.5t-67.5 39.5t-57.5 48.5t-41 58t-28 72t-8.5 86q0 144 111.5 243t316.5 111v211h105v-211 q215 -12 381 -119v-108q-192 131 -432 131q-188 0 -283.5 -75t-95.5 -185q0 -53 24 -96.5t49 -69t95 -55t103.5 -40t134.5 -39.5q10 -3 16 -5q60 -17 99 -29.5t94 -34.5t91 -43t75.5 -53t62.5 -68t38 -84.5t15 -105.5q0 -119 -65.5 -209t-169 -136.5t-232.5 -54.5v-210h-105 v210q-145 7 -270.5 50t-200.5 102z" />
<glyph d="M225 80v106q64 -44 172.5 -81t231.5 -37q141 0 224 50t83 138q0 34 -17 61.5t-42 46.5t-73 37t-89 29.5t-111 28.5q-63 15 -108 29.5t-93.5 37.5t-78 51t-49 68.5t-19.5 91.5q0 113 83.5 183.5t240.5 80.5v218h98v-218q186 -10 311 -88v-102q-71 44 -163 72t-185 28 q-143 0 -214 -48t-71 -126q0 -29 10.5 -53.5t31.5 -42.5t45 -31.5t60 -25t66.5 -20t72.5 -18.5q4 -1 7 -1.5t6 -1.5q52 -12 81.5 -20t76 -23t73.5 -28.5t59.5 -36t50 -47t30 -59t12.5 -75.5q0 -120 -100.5 -193t-259.5 -84v-217h-98v217q-110 6 -205.5 35.5t-149.5 67.5z " />
<glyph d="M131 137v80h152v141h-152v86h152v535h479q168 0 261 -87t93 -226q0 -142 -94.5 -225t-263.5 -83h-375v-141h436v-80h-436v-137h-100v137h-152zM383 444h360q131 0 202 57.5t71 164.5t-71 165t-202 58h-360v-445z" />
<glyph horiz-adv-x="2015" d="M57 889v90h201v190q0 130 67.5 204.5t194.5 74.5q115 0 193 -41v-94q-80 43 -172 43q-89 0 -136 -54.5t-47 -154.5v-168h498v190q0 130 67.5 204.5t194.5 74.5q112 0 193 -41v-94q-80 43 -172 43q-90 0 -136.5 -54t-46.5 -155v-168h498v313h100v-313h361v-90h-361v-602 q0 -119 42 -167t141 -48q81 0 164 45v-97q-27 -19 -81 -32t-110 -13q-130 0 -193 76t-63 209v629h-498v-889h-100v889h-498v-889h-100v889h-201z" />
<glyph horiz-adv-x="1294" d="M111 487q0 137 60.5 254t175.5 190t261 73q131 0 234 -53.5t168 -143.5v172h100v-979q-80 -87 -80 -180q0 -64 43 -101.5t111 -37.5q46 0 82 10v-74q-46 -12 -99 -12q-102 0 -160.5 56.5t-58.5 145.5q0 105 78 193h-16v170q-65 -89 -168 -142t-234 -53q-146 0 -261 72 t-175.5 188t-60.5 252zM213 487q0 -178 119 -298.5t297 -120.5q123 0 227 66.5t154 172.5v363q-51 105 -155 173t-226 68q-178 0 -297 -122t-119 -302z" />
<glyph horiz-adv-x="1296" d="M111 487q0 137 60.5 254t176 190t262.5 73q131 0 234 -53.5t168 -143.5v172h100v-979h-100v170q-65 -89 -168 -142t-234 -53q-147 0 -262.5 72t-176 188t-60.5 252zM215 487q0 -177 118.5 -298t295.5 -121q124 0 228.5 66.5t154.5 172.5v363q-51 105 -155 173t-228 68 q-177 0 -295.5 -122t-118.5 -302zM373 1448h86q2 -78 52.5 -131t127.5 -53q76 0 126 53.5t52 130.5h86q0 -114 -78.5 -190t-185.5 -76q-110 0 -188 75.5t-78 190.5z" />
<glyph horiz-adv-x="1259" d="M100 20h103q12 -149 125.5 -247.5t277.5 -98.5q170 0 286 108t116 265q0 150 -101 254q-123 -113 -309 -113q-98 0 -182.5 34t-140.5 90.5t-87.5 130t-31.5 153.5q0 167 123 287.5t319 120.5q189 0 317 -121l267 121v-89l-209 -98q67 -104 67 -221q0 -126 -69 -223 q66 -63 102.5 -148.5t36.5 -177.5t-36.5 -176.5t-100.5 -148.5t-160 -102t-207 -38q-211 0 -352.5 125t-153.5 313zM258 596q0 -134 97.5 -224.5t242.5 -90.5q146 0 244 90.5t98 224.5q0 135 -98 225t-244 90q-145 0 -242.5 -90t-97.5 -225zM334 1180l223 268h107l221 -268 h-109l-168 200l-166 -200h-108z" />
<glyph horiz-adv-x="1064" d="M264 1829h88q2 -79 52 -133t126 -54t127.5 54t53.5 133h84q0 -114 -77.5 -191t-187.5 -77q-109 0 -185.5 76.5t-80.5 191.5z" />
<glyph horiz-adv-x="1009" d="M420 1690q0 34 24 58t58 24t58 -24t24 -58t-24 -58t-58 -24t-58 24t-24 58z" />
<glyph horiz-adv-x="1081" d="M266 1829h107l166 -199l168 199h108l-223 -266h-105z" />
<glyph horiz-adv-x="1067" d="M338 1698q0 79 56.5 135.5t137.5 56.5q77 0 133 -57t56 -135t-56 -134.5t-133 -56.5q-81 0 -137.5 56t-56.5 135zM408 1698q0 -51 35 -86t89 -35q51 0 86 35t35 86q0 54 -34.5 88.5t-86.5 34.5q-54 0 -89 -34.5t-35 -88.5z" />
<glyph horiz-adv-x="1060" d="M332 1829h135l197 -266h-107z" />
<glyph horiz-adv-x="1028" d="M338 1563l197 266h133l-224 -266h-106z" />
<glyph horiz-adv-x="1083" d="M297 1653v86h483v-86h-483z" />
<glyph horiz-adv-x="1259" d="M100 20h103q12 -149 125.5 -247.5t277.5 -98.5q170 0 286 108t116 265q0 150 -101 254q-123 -113 -309 -113q-98 0 -182.5 34t-140.5 90.5t-87.5 130t-31.5 153.5q0 167 123 287.5t319 120.5q189 0 317 -121l267 121v-89l-209 -98q67 -104 67 -221q0 -126 -69 -223 q66 -63 102.5 -148.5t36.5 -177.5t-36.5 -176.5t-100.5 -148.5t-160 -102t-207 -38q-211 0 -352.5 125t-153.5 313zM258 596q0 -134 97.5 -224.5t242.5 -90.5q146 0 244 90.5t98 224.5q0 135 -98 225t-244 90q-145 0 -242.5 -90t-97.5 -225zM332 1448h86q2 -78 52.5 -131 t127.5 -53q76 0 126 53.5t52 130.5h86q0 -114 -78.5 -190t-185.5 -76q-110 0 -188 75.5t-78 190.5z" />
<glyph horiz-adv-x="1259" d="M100 20h103q12 -149 125.5 -247.5t277.5 -98.5q170 0 286 108t116 265q0 150 -101 254q-123 -113 -309 -113q-98 0 -182.5 34t-140.5 90.5t-87.5 130t-31.5 153.5q0 167 123 287.5t319 120.5q189 0 317 -121l267 121v-89l-209 -98q67 -104 67 -221q0 -126 -69 -223 q66 -63 102.5 -148.5t36.5 -177.5t-36.5 -176.5t-100.5 -148.5t-160 -102t-207 -38q-211 0 -352.5 125t-153.5 313zM258 596q0 -134 97.5 -224.5t242.5 -90.5q146 0 244 90.5t98 224.5q0 135 -98 225t-244 90q-145 0 -242.5 -90t-97.5 -225zM518 1321q0 34 24 58t58 24 t58 -24t24 -58t-24 -58t-58 -24t-58 24t-24 58z" />
<glyph horiz-adv-x="1259" d="M100 20h103q12 -149 125.5 -247.5t277.5 -98.5q170 0 286 108t116 265q0 150 -101 254q-123 -113 -309 -113q-98 0 -182.5 34t-140.5 90.5t-87.5 130t-31.5 153.5q0 167 123 287.5t319 120.5q189 0 317 -121l267 121v-89l-209 -98q67 -104 67 -221q0 -126 -69 -223 q66 -63 102.5 -148.5t36.5 -177.5t-36.5 -176.5t-100.5 -148.5t-160 -102t-207 -38q-211 0 -352.5 125t-153.5 313zM258 596q0 -134 97.5 -224.5t242.5 -90.5q146 0 244 90.5t98 224.5q0 135 -98 225t-244 90q-145 0 -242.5 -90t-97.5 -225zM500 1133l137 346h86l-113 -346 h-110z" />
<glyph horiz-adv-x="2021" d="M182 0v979h101v-829l690 829h92v-430h672v430h100v-979h-100v459h-672v-459h-100v827l-689 -827h-94z" />
<glyph horiz-adv-x="2607" d="M213 0v1434h102v-1260l959 1260h92v-615h924v615h102v-1434h-102v723h-924v-723h-102v1264l-963 -1264h-88z" />
<glyph horiz-adv-x="1738" d="M152 717q0 209 93 379t256.5 266t364.5 96q149 0 281 -56.5t227 -154.5t150 -236t55 -294q0 -310 -190 -516l180 -201h-123l-123 139q-194 -164 -457 -164q-201 0 -364.5 96t-256.5 266t-93 380zM256 717q0 -137 48 -257t129.5 -205t194 -134t238.5 -49q221 0 389 143 l-385 436h121l330 -372q154 185 154 438q0 137 -47.5 257t-129 204.5t-194 133t-238.5 48.5q-168 0 -307.5 -82.5t-221 -230.5t-81.5 -330z" />
<glyph horiz-adv-x="1058" d="M264 1690q0 32 23 54.5t55 22.5t55 -22.5t23 -54.5t-23 -55t-55 -23t-55 23t-23 55zM655 1690q0 32 23 54.5t55 22.5t55 -22.5t23 -54.5t-23 -55t-55 -23t-55 23t-23 55z" />
<glyph horiz-adv-x="2021" d="M182 0v979h101v-430h671v430h101v-829l690 829h92v-979h-100v825l-688 -825h-95v459h-671v-459h-101z" />
<glyph horiz-adv-x="1067" d="M256 1563l221 266h107l221 -266h-109l-166 200l-165 -200h-109z" />
<glyph horiz-adv-x="1740" d="M152 717q0 209 93 379t256.5 266t364.5 96q149 0 281 -56.5t227 -154.5t150 -236t55 -294q0 -144 -47.5 -274t-129.5 -226t-197.5 -158.5t-248.5 -76.5q50 -17 124 -52.5t131 -64t132 -51.5t142 -23q90 0 155 47v-102q-67 -41 -157 -41q-72 0 -148.5 22.5t-142 54.5 t-128 63.5t-129 54t-124.5 22.5q-182 0 -311 -135v112q73 73 200 105q-244 55 -396 252.5t-152 470.5zM256 717q0 -137 48 -257t129.5 -205t194 -134t238.5 -49t238.5 49t194 134t129 205t47.5 257t-47.5 257t-129 204.5t-194 133t-238.5 48.5q-168 0 -307.5 -82.5 t-221 -230.5t-81.5 -330z" />
<glyph d="M-8 334v92h241v1008h953v-95h-850v-538h704v-96h-704v-279h373v-92h-373v-334h-103v334h-241z" />
<glyph horiz-adv-x="1464" d="M57 889v90h248v313h101v-313h495v313h100v-313h363v-90h-363v-602q0 -119 43 -167t140 -48q84 0 166 45v-97q-27 -19 -81 -32t-110 -13q-130 0 -194 76t-64 209v629h-495v-602q0 -120 42 -167.5t140 -47.5q82 0 164 45v-97q-27 -19 -81 -32t-110 -13q-130 0 -193 76 t-63 209v629h-248z" />
<glyph d="M166 0v94h47q94 0 94 162v201h-141v92h141v227h-141v94h141v134q0 217 119.5 335.5t333.5 118.5q194 0 334 -92v-106q-62 48 -147.5 75t-176.5 27q-175 0 -267.5 -95t-92.5 -276v-121h573v-94h-573v-227h573v-92h-573v-254q0 -38 -13 -67t-32 -42h739v-94h-938z" />
<glyph horiz-adv-x="729" d="M166 260v1032h100v-313h363v-90h-363v-602q0 -119 43 -167t140 -48q83 0 165 45v-97q-27 -19 -80.5 -32t-109.5 -13q-130 0 -194 76t-64 209z" />
<glyph horiz-adv-x="1132" d="M266 1563l197 266h135l-225 -266h-107zM569 1563l199 266h131l-223 -266h-107z" />
<glyph d="M-47 997v93h174v344h598q197 0 312 -93t130 -251h158v-93h-160q-19 -158 -132.5 -249t-307.5 -91h-496v-657h-102v997h-174zM229 752h488q167 0 258.5 77t91.5 218q0 140 -91.5 216t-258.5 76h-488v-587z" />
<glyph horiz-adv-x="2607" d="M213 0v1434h102v-615h924v615h102v-1262l959 1262h92v-1434h-102v1266l-961 -1266h-90v723h-924v-723h-102z" />
<glyph horiz-adv-x="1705" d="M90 659v70l260 244q81 74 116.5 126.5t35.5 112.5q0 65 -46 104.5t-122 39.5q-127 0 -228 -94v98q96 84 236 84q108 0 181 -61.5t73 -159.5q0 -77 -41 -143t-131 -152l-197 -189h398v-80h-535zM410 0l835 1434h105l-836 -1434h-104zM1098 49v88q98 -65 225 -65 q84 0 147.5 48.5t63.5 127.5q0 76 -54.5 121t-148.5 45q-41 0 -92 -15v64l236 231h-345v80h469v-67l-229 -226q48 -2 91.5 -16.5t81.5 -41.5t60.5 -72.5t22.5 -104.5q0 -114 -84 -185t-213 -71q-145 0 -231 59z" />
<glyph horiz-adv-x="1705" d="M127 1208v95l219 131h88v-775h-94v676zM315 0l836 1434h104l-835 -1434h-105zM1053 49v88q98 -65 225 -65q84 0 147.5 48.5t63.5 127.5q0 76 -54.5 121t-148.5 45q-41 0 -92 -15v64l236 231h-345v80h469v-67l-229 -226q48 -2 91.5 -16.5t81.5 -41.5t60.5 -72.5 t22.5 -104.5q0 -114 -84 -185t-213 -71q-145 0 -231 59z" />
<glyph horiz-adv-x="1732" d="M152 1354v80h516v-72l-357 -703h-104l356 695h-411zM311 0l836 1434h104l-835 -1434h-105zM991 213q0 71 42.5 122.5t115.5 78.5q-117 50 -117 168q0 91 74 146.5t186 55.5q114 0 188 -55.5t74 -146.5q0 -118 -116 -168q74 -27 115.5 -78t41.5 -123q0 -102 -86.5 -162.5 t-216.5 -60.5q-128 0 -214.5 61t-86.5 162zM1085 221q0 -66 58.5 -109.5t148.5 -43.5q91 0 150 43.5t59 109.5q0 69 -58.5 110.5t-150.5 41.5t-149.5 -41t-57.5 -111zM1120 571q0 -58 48.5 -92.5t123.5 -34.5q77 0 125.5 34.5t48.5 92.5q0 63 -49 99.5t-125 36.5 q-75 0 -123.5 -36.5t-48.5 -99.5z" />
<glyph horiz-adv-x="1705" d="M150 1208v95l219 131h88v-775h-95v676zM336 0l835 1434h105l-836 -1434h-104zM1032 43v90q108 -61 217 -61q94 0 156.5 50t62.5 128q0 71 -58.5 119.5t-154.5 48.5q-112 0 -192 -31l51 387h397v-80h-325l-27 -213q47 13 115 13q125 0 207 -67.5t82 -176.5 q0 -117 -89.5 -188.5t-220.5 -71.5q-126 0 -221 53z" />
<glyph horiz-adv-x="1705" d="M109 659v70l260 244q80 74 115.5 126t35.5 113q0 65 -46 104.5t-122 39.5q-126 0 -227 -94v98q96 84 235 84q108 0 181 -61.5t73 -159.5q0 -77 -41 -143t-131 -152l-196 -189h397v-80h-534zM428 0l836 1434h104l-836 -1434h-104zM1073 43v90q108 -61 217 -61 q94 0 156.5 50t62.5 128q0 71 -58.5 119.5t-154.5 48.5q-112 0 -192 -31l51 387h397v-80h-325l-27 -213q47 13 115 13q125 0 207 -67.5t82 -176.5q0 -117 -89.5 -188.5t-220.5 -71.5q-126 0 -221 53z" />
<glyph horiz-adv-x="1705" d="M92 709v88q100 -66 225 -66q84 0 147.5 48.5t63.5 127.5q0 76 -54 121t-148 45q-46 0 -93 -14v63l236 232h-344v80h469v-68l-229 -225q48 -2 91.5 -16.5t81.5 -41.5t60.5 -73t22.5 -105q0 -114 -84 -185t-213 -71q-144 0 -232 60zM385 0l836 1434h104l-836 -1434h-104z M1083 43v90q108 -61 217 -61q94 0 157 50t63 128q0 71 -58.5 119.5t-154.5 48.5q-113 0 -193 -31l51 387h398v-80h-326l-27 -213q47 13 115 13q125 0 207 -67.5t82 -176.5q0 -117 -89 -188.5t-220 -71.5q-127 0 -222 53z" />
<glyph horiz-adv-x="1705" d="M102 868v70l416 496h88v-488h125v-78h-125v-209h-92v209h-412zM209 946h305v365zM434 0l836 1434h104l-835 -1434h-105zM1077 43v90q108 -61 217 -61q94 0 156.5 50t62.5 128q0 71 -58.5 119.5t-154.5 48.5q-112 0 -192 -31l51 387h397v-80h-325l-27 -213q47 13 115 13 q125 0 207 -67.5t82 -176.5q0 -117 -89.5 -188.5t-220.5 -71.5q-126 0 -221 53z" />
<glyph horiz-adv-x="1705" d="M143 1208v95l219 131h89v-775h-95v676zM332 0l835 1434h105l-836 -1434h-104zM1006 352q0 186 91.5 309t248.5 123q103 0 174 -45v-86q-73 49 -162 49q-115 0 -187 -84t-73 -225q35 48 93.5 77.5t129.5 29.5q106 0 179 -69.5t73 -180.5q0 -113 -76.5 -186.5t-191.5 -73.5 q-143 0 -221 100.5t-78 261.5zM1102 293q5 -100 56.5 -161.5t141.5 -61.5q77 0 129 50.5t52 129.5q0 76 -53 125t-128 49q-64 0 -116.5 -36.5t-81.5 -94.5z" />
<glyph horiz-adv-x="1705" d="M86 702v91q110 -62 217 -62q94 0 156.5 50t62.5 128q0 71 -58.5 119.5t-154.5 48.5q-115 0 -192 -30l51 387h397v-80h-325l-27 -213q43 12 115 12q125 0 206.5 -67.5t81.5 -176.5q0 -117 -89 -188.5t-220 -71.5q-126 0 -221 53zM379 0l835 1434h105l-836 -1434h-104z M1053 352q0 186 91.5 309t248.5 123q103 0 174 -45v-86q-73 49 -162 49q-115 0 -187 -84t-73 -225q35 48 93.5 77.5t129.5 29.5q106 0 179 -69.5t73 -180.5q0 -113 -76.5 -186.5t-191.5 -73.5q-143 0 -221 100.5t-78 261.5zM1149 293q5 -100 57 -161.5t142 -61.5 q77 0 128.5 50.5t51.5 129.5q0 76 -52.5 125t-127.5 49q-64 0 -117 -36.5t-82 -94.5z" />
<glyph horiz-adv-x="1732" d="M88 702v91q110 -62 217 -62q94 0 156.5 50t62.5 128q0 71 -58.5 119.5t-154.5 48.5q-115 0 -192 -30l51 387h397v-80h-325l-27 -213q44 12 115 12q125 0 206.5 -67.5t81.5 -176.5q0 -117 -89 -188.5t-220 -71.5q-126 0 -221 53zM369 0l835 1434h105l-836 -1434h-104z M1047 213q0 71 42 122.5t115 78.5q-117 50 -117 168q0 91 74.5 146.5t186.5 55.5q114 0 188 -55.5t74 -146.5q0 -118 -117 -168q74 -27 116 -78t42 -123q0 -102 -86.5 -162.5t-216.5 -60.5q-128 0 -214.5 61t-86.5 162zM1141 221q0 -66 58.5 -109.5t148.5 -43.5 q91 0 149.5 43.5t58.5 109.5q0 70 -58 111t-150 41t-149.5 -41t-57.5 -111zM1176 571q0 -58 48.5 -92.5t123.5 -34.5q77 0 125.5 34.5t48.5 92.5q0 63 -49 99.5t-125 36.5q-75 0 -123.5 -36.5t-48.5 -99.5z" />
<glyph horiz-adv-x="1732" d="M74 709v88q100 -66 225 -66q84 0 147.5 48.5t63.5 127.5q0 76 -54.5 121t-148.5 45q-45 0 -92 -14v63l236 232h-345v80h469v-68l-229 -225q48 -2 91.5 -16.5t81.5 -41.5t60.5 -73t22.5 -105q0 -114 -84 -185t-213 -71q-143 0 -231 60zM369 0l835 1434h105l-836 -1434 h-104zM1047 213q0 71 42 122.5t115 78.5q-117 50 -117 168q0 91 74.5 146.5t186.5 55.5q114 0 188 -55.5t74 -146.5q0 -118 -117 -168q74 -27 116 -78t42 -123q0 -102 -86.5 -162.5t-216.5 -60.5q-128 0 -214.5 61t-86.5 162zM1141 221q0 -66 58.5 -109.5t148.5 -43.5 q91 0 149.5 43.5t58.5 109.5q0 70 -58 111t-150 41t-149.5 -41t-57.5 -111zM1176 571q0 -58 48.5 -92.5t123.5 -34.5q77 0 125.5 34.5t48.5 92.5q0 63 -49 99.5t-125 36.5q-75 0 -123.5 -36.5t-48.5 -99.5z" />
<glyph horiz-adv-x="1732" d="M127 1208v95l219 131h88v-775h-94v676zM313 0l836 1434h104l-835 -1434h-105zM995 213q0 71 42.5 122.5t115.5 78.5q-117 50 -117 168q0 91 74 146.5t186 55.5q114 0 188.5 -55.5t74.5 -146.5q0 -118 -117 -168q74 -27 115.5 -78t41.5 -123q0 -102 -86.5 -162.5 t-216.5 -60.5q-128 0 -214.5 61t-86.5 162zM1090 221q0 -66 58 -109.5t148 -43.5q91 0 150 43.5t59 109.5q0 69 -58.5 110.5t-150.5 41.5t-149 -41t-57 -111zM1124 571q0 -58 48.5 -92.5t123.5 -34.5q77 0 125.5 34.5t48.5 92.5q0 63 -49 99.5t-125 36.5q-75 0 -123.5 -36.5 t-48.5 -99.5z" />
<glyph horiz-adv-x="1705" d="M156 1208v95l219 131h88v-775h-94v676zM342 0l836 1434h104l-836 -1434h-104zM928 209v70l415 495h89v-487h124v-78h-124v-209h-93v209h-411zM1034 287h305v364z" />
<glyph horiz-adv-x="1705" d="M113 1208v95l219 131h88v-775h-94v676zM301 0l836 1434h104l-835 -1434h-105zM1059 0v70l260 243q80 74 115.5 126.5t35.5 113.5q0 65 -45.5 104t-121.5 39q-127 0 -228 -94v98q96 84 236 84q108 0 181 -61.5t73 -159.5q0 -77 -41 -143t-131 -152l-197 -188h397v-80h-534 z" />
<glyph horiz-adv-x="1705" d="M96 709v88q100 -66 226 -66q84 0 147 48t63 128q0 76 -54 121t-148 45q-45 0 -92 -14v63l235 232h-344v80h469v-68l-229 -225q48 -2 91.5 -16.5t81.5 -41.5t60.5 -73t22.5 -105q0 -114 -84 -185t-213 -71q-144 0 -232 60zM387 0l836 1434h104l-835 -1434h-105zM971 209 v70l415 495h89v-487h124v-78h-124v-209h-93v209h-411zM1077 287h305v364z" />
<glyph horiz-adv-x="1050" d="M4 1690q0 32 23 54.5t55 22.5t55 -22.5t23 -54.5t-23 -55t-55 -23t-55 23t-23 55zM225 0v1434h103v-1434h-103zM449 1690q0 32 22.5 54.5t54.5 22.5t55 -22.5t23 -54.5t-23 -55t-55 -23t-54.5 23t-22.5 55zM723 0v1434h102v-1434h-102zM893 1690q0 32 23 54.5t55 22.5 t55 -22.5t23 -54.5t-23 -55t-55 -23t-55 23t-23 55z" />
<glyph horiz-adv-x="2742" d="M152 717q0 209 93 379t256.5 266t364.5 96q226 0 404.5 -124t255.5 -330q83 208 262.5 331t409.5 123q237 0 409 -112v-109q-191 123 -407 123q-171 0 -313 -82t-225 -230t-83 -331q0 -137 48.5 -257.5t132.5 -205t199 -133.5t245 -49q248 0 436 149v-112 q-181 -134 -442 -134q-230 0 -409.5 123t-262.5 330q-78 -207 -256 -330t-404 -123q-201 0 -364.5 96t-256.5 266t-93 380zM256 717q0 -137 48 -257t129.5 -205t194 -134t238.5 -49t238.5 49t194 134t129 205t47.5 257t-47.5 257t-129 204.5t-194 133t-238.5 48.5 q-168 0 -307.5 -82.5t-221 -230.5t-81.5 -330z" />
<glyph horiz-adv-x="3055" d="M152 717q0 209 93 379t256.5 266t364.5 96q226 0 404.5 -124t255.5 -330q79 207 256.5 330.5t406.5 123.5q150 0 282.5 -56.5t227.5 -154.5t150 -236t55 -294q0 -210 -93.5 -380t-257.5 -266t-364 -96q-229 0 -406 122.5t-257 330.5q-78 -207 -256 -330t-404 -123 q-201 0 -364.5 96t-256.5 266t-93 380zM256 717q0 -137 48 -257t129.5 -205t194 -134t238.5 -49t238.5 49t194 134t129 205t47.5 257t-47.5 257t-129 204.5t-194 133t-238.5 48.5q-168 0 -307.5 -82.5t-221 -230.5t-81.5 -330zM1579 717q0 -137 48 -257t129.5 -205t194 -134 t238.5 -49t238.5 49t194.5 134t130 205t48 257q0 136 -48 256.5t-130 205t-194.5 133t-238.5 48.5q-168 0 -307.5 -82.5t-221 -230.5t-81.5 -330z" />
<glyph horiz-adv-x="2011" d="M111 487q0 102 37.5 195.5t104 165t165 114t213.5 42.5q163 0 286.5 -79.5t182.5 -209.5q63 132 186 210.5t281 78.5q164 0 297 -76v-97q-138 80 -285 80q-182 0 -304 -121t-122 -303q0 -180 122 -299.5t304 -119.5q172 0 303 92v-99q-136 -86 -317 -86q-157 0 -279.5 78 t-185.5 209q-62 -132 -183.5 -209.5t-285.5 -77.5q-115 0 -213.5 42t-165 112.5t-104 163.5t-37.5 194zM213 487q0 -177 120 -298t298 -121q179 0 299.5 120.5t120.5 300.5q0 179 -121 300.5t-299 121.5t-298 -122t-120 -302z" />
<glyph horiz-adv-x="2201" d="M111 487q0 102 37.5 195.5t104 165t165 114t213.5 42.5q162 0 286 -79.5t185 -209.5q59 130 182.5 209.5t286.5 79.5q115 0 213.5 -42.5t165 -114t104 -165t37.5 -195.5q0 -101 -37.5 -194t-104 -163.5t-165 -112.5t-213.5 -42q-166 0 -288 78t-181 209 q-64 -132 -185.5 -209.5t-285.5 -77.5q-115 0 -213.5 42t-165 112.5t-104 163.5t-37.5 194zM213 487q0 -177 120 -298t298 -121q179 0 299.5 117.5t120.5 301.5q0 180 -121 302t-299 122t-298 -122t-120 -302zM1153 487q0 -178 119.5 -298.5t298.5 -120.5q177 0 297.5 121 t120.5 298q0 180 -120.5 302t-297.5 122q-178 0 -298 -120.5t-120 -303.5z" />
<glyph horiz-adv-x="1118" d="M127 0v90h55q80 0 80 131v80h-135v80h135v156h-135v79h135q0 188 107.5 288t306.5 100q174 0 305 -82v-99q-139 88 -301 88q-159 0 -238.5 -72t-79.5 -223h502v-79h-502v-156h502v-80h-502v-106q0 -64 -45 -105h670v-90h-860z" />
<glyph horiz-adv-x="1083" d="M53 139v80h162v760h772v-90h-672v-371h543v-88h-543v-211h287v-80h-287v-139h-100v139h-162z" />
<glyph horiz-adv-x="1247" d="M43 618v93h174v268h483q156 0 248 -73t107 -195h166v-93h-166q-14 -125 -107.5 -196.5t-249.5 -71.5h-381v-350h-100v618h-174zM317 440h367q129 0 200.5 59.5t71.5 166.5q0 106 -71.5 164.5t-200.5 58.5h-367v-449z" />
<glyph horiz-adv-x="1259" d="M100 20h103q12 -149 125.5 -247.5t277.5 -98.5q170 0 286 108t116 265q0 150 -101 254q-123 -113 -309 -113q-98 0 -182.5 34t-140.5 90.5t-87.5 130t-31.5 153.5q0 167 123 287.5t319 120.5q189 0 317 -121l267 121v-89l-209 -98q67 -104 67 -221q0 -126 -69 -223 q66 -63 102.5 -148.5t36.5 -177.5t-36.5 -176.5t-100.5 -148.5t-160 -102t-207 -38q-211 0 -352.5 125t-153.5 313zM258 596q0 -134 97.5 -224.5t242.5 -90.5q146 0 244 90.5t98 224.5q0 135 -98 225t-244 90q-145 0 -242.5 -90t-97.5 -225z" />
<glyph horiz-adv-x="1296" d="M111 487q0 137 60.5 254t176 190t262.5 73q131 0 234 -53.5t168 -143.5v172h100v-979h-100v170q-65 -89 -168 -142t-234 -53q-147 0 -262.5 72t-176 188t-60.5 252zM215 487q0 -177 118.5 -298t295.5 -121q124 0 228.5 66.5t154.5 172.5v363q-51 105 -155 173t-228 68 q-177 0 -295.5 -122t-118.5 -302z" />
<glyph horiz-adv-x="1417" d="M57 889v90h201v190q0 130 67.5 204.5t194.5 74.5q115 0 193 -41v-92q-80 43 -172 43q-88 0 -135.5 -55t-47.5 -154v-170h498v313h100v-313h363v-90h-363v-602q0 -119 42 -167t141 -48q83 0 166 45v-97q-28 -19 -81.5 -32t-109.5 -13q-131 0 -194.5 76t-63.5 209v629h-498 v-889h-100v889h-201z" />
<glyph d="M29 336v94h194v229h-194v93h194v682h592q211 0 328 -105.5t117 -281.5q0 -175 -117 -281.5t-328 -106.5h-489v-229h622v-94h-622v-336h-103v336h-194zM326 752h481q167 0 258.5 77t91.5 218q0 140 -91.5 216t-258.5 76h-481v-587z" />
<glyph d="M178 0v90h55q80 0 80 131v80h-135v80h135v156h-135v79h135q0 188 107.5 288t306.5 100q174 0 305 -82v-99q-139 88 -301 88q-158 0 -237.5 -72t-79.5 -223h501v-79h-501v-156h501v-80h-501v-106q0 -64 -45 -105h669v-90h-860z" />
<glyph horiz-adv-x="2500" d="M213 0v1434h102v-615h924v615h606q190 0 296 -93t106 -254q0 -115 -51.5 -193t-145.5 -114q153 -23 239.5 -124t86.5 -259q0 -181 -122.5 -289t-340.5 -108h-674v723h-924v-723h-102zM1341 94h555q178 0 273.5 81.5t95.5 232.5q0 150 -95.5 230.5t-273.5 80.5h-555v-625z M1341 809h490q151 0 233 68.5t82 195.5t-82 196.5t-233 69.5h-490v-530z" />
<glyph horiz-adv-x="2613" d="M213 0v1434h102v-615h924v615h449q170 0 314 -52.5t244.5 -146t157 -227t56.5 -291.5t-56.5 -291.5t-157 -227t-244.5 -146t-314 -52.5h-449v723h-924v-723h-102zM1341 94h330q317 0 500.5 170.5t183.5 452.5t-183.5 452t-500.5 170h-330v-1245z" />
<glyph horiz-adv-x="2332" d="M213 0v1434h102v-615h924v615h963v-95h-861v-520h711v-96h-711v-629h893v-94h-995v723h-924v-723h-102z" />
<glyph horiz-adv-x="2291" d="M213 0v1434h102v-615h924v615h952v-95h-850v-538h705v-96h-705v-705h-102v723h-924v-723h-102z" />
<glyph horiz-adv-x="2338" d="M213 0v1434h102v-615h924v615h102v-631l721 631h142l-748 -658l862 -776h-153l-824 743v-743h-102v723h-924v-723h-102z" />
<glyph horiz-adv-x="2760" d="M213 0v1434h102v-615h924v615h104l551 -725l553 725h99v-1434h-101v1276l-518 -680h-65l-521 680v-1276h-102v723h-924v-723h-102z" />
<glyph horiz-adv-x="2613" d="M213 0v1434h102v-615h924v615h92l967 -1256v1256h102v-1434h-90l-969 1257v-1257h-102v723h-924v-723h-102z" />
<glyph horiz-adv-x="2578" d="M213 0v1434h102v-615h924v615h102v-822q0 -256 127 -398t347 -142t345.5 141.5t125.5 398.5v822h102v-822q0 -153 -42.5 -274.5t-119.5 -200.5t-181.5 -120.5t-229.5 -41.5q-259 0 -417.5 166.5t-158.5 470.5v111h-924v-723h-102z" />
<glyph horiz-adv-x="2387" d="M213 0v1434h102v-615h924v615h598q211 0 327.5 -105.5t116.5 -281.5t-116.5 -283t-327.5 -107h-496v-657h-102v723h-924v-723h-102zM1341 752h488q167 0 258.5 77t91.5 218q0 140 -91.5 216t-258.5 76h-488v-587z" />
<glyph horiz-adv-x="2533" d="M213 0v1434h102v-615h924v615h637q207 0 322.5 -103.5t115.5 -275.5q0 -155 -92.5 -256t-261.5 -121l471 -678h-121l-467 670h-502v-670h-102v723h-924v-723h-102zM1341 764h527q164 0 254 75t90 214q0 136 -90.5 211t-253.5 75h-527v-575z" />
<glyph horiz-adv-x="2643" d="M213 0v1434h90l967 -1256v1256h448q170 0 314 -52.5t244.5 -146t157 -227t56.5 -291.5t-56.5 -291.5t-157 -227t-244.5 -146t-314 -52.5h-434l-969 1257v-1257h-102zM1372 94h330q317 0 501.5 170.5t184.5 452.5t-184.5 452t-501.5 170h-330v-1245z" />
<glyph horiz-adv-x="2531" d="M213 0v1434h90l967 -1256v1256h606q190 0 295.5 -93t105.5 -254q0 -115 -51 -193t-145 -114q153 -23 239 -124t86 -259q0 -181 -122 -289t-340 -108h-660l-969 1257v-1257h-102zM1372 94h555q178 0 273.5 81.5t95.5 232.5q0 150 -95.5 230.5t-273.5 80.5h-555v-625z M1372 809h490q151 0 234 68.5t83 195.5t-83 196.5t-234 69.5h-490v-530z" />
<glyph horiz-adv-x="2566" d="M213 0v1434h104l551 -725l551 725h596q211 0 328 -105.5t117 -281.5t-117 -283t-328 -107h-495v-657h-103v1276l-516 -680h-65l-521 680v-1276h-102zM1520 752h487q167 0 258.5 77t91.5 218q0 140 -91.5 216t-258.5 76h-487v-587z" />
<glyph horiz-adv-x="2711" d="M213 0v1434h104l551 -725l551 725h635q207 0 322.5 -103.5t115.5 -275.5q0 -155 -92.5 -256t-261.5 -121l471 -678h-121l-467 670h-501v-670h-103v1276l-516 -680h-65l-521 680v-1276h-102zM1520 764h526q164 0 254 75t90 214q0 136 -90.5 211t-253.5 75h-526v-575z" />
<glyph horiz-adv-x="2760" d="M213 0v1434h104l551 -725l551 725h101v-615h925v615h103v-1434h-103v723h-925v-723h-103v1276l-516 -680h-65l-521 680v-1276h-102z" />
<glyph horiz-adv-x="2756" d="M213 0v1434h104l551 -725l551 725h101v-822q0 -255 127 -397.5t346 -142.5q220 0 345.5 141.5t125.5 398.5v822h102v-822q0 -304 -157.5 -470.5t-415.5 -166.5q-259 0 -417.5 166.5t-158.5 470.5v664l-516 -680h-65l-521 680v-1276h-102z" />
<glyph horiz-adv-x="2418" d="M213 0v1434h90l967 -1256v1256h598q211 0 327.5 -105.5t116.5 -281.5t-116.5 -283t-327.5 -107h-496v-657h-88l-969 1257v-1257h-102zM1372 752h488q167 0 258.5 77t91.5 218q0 140 -91.5 216t-258.5 76h-488v-587z" />
<glyph horiz-adv-x="2564" d="M213 0v1434h90l967 -1256v1256h637q207 0 322.5 -103.5t115.5 -275.5q0 -155 -92.5 -256t-261.5 -121l471 -678h-121l-467 670h-502v-670h-88l-969 1257v-1257h-102zM1372 764h526q164 0 254.5 75t90.5 214q0 136 -91 211t-254 75h-526v-575z" />
<glyph horiz-adv-x="2643" d="M213 0v1434h90l967 -1256v1256h92l967 -1256v1256h100v-1434h-88l-969 1257v-1257h-88l-969 1257v-1257h-102z" />
<glyph horiz-adv-x="2385" d="M190 612v822h103v-822q0 -256 126.5 -398t346.5 -142t345.5 141.5t125.5 398.5v822h596q212 0 329 -105.5t117 -281.5t-117 -283t-329 -107h-494v-45q0 -153 -42.5 -274.5t-119.5 -200.5t-181.5 -120.5t-229.5 -41.5q-259 0 -417.5 166.5t-158.5 470.5zM1339 752h486 q169 0 260.5 77t91.5 218q0 140 -91.5 216t-260.5 76h-486v-587z" />
<glyph horiz-adv-x="2531" d="M190 612v822h103v-822q0 -256 126.5 -398t346.5 -142t345.5 141.5t125.5 398.5v822h635q208 0 324 -103.5t116 -275.5q0 -155 -92.5 -256t-261.5 -121l469 -678h-119l-467 670h-502v-58q0 -153 -42.5 -274.5t-119.5 -200.5t-181.5 -120.5t-229.5 -41.5 q-259 0 -417.5 166.5t-158.5 470.5zM1339 764h525q165 0 255.5 75t90.5 214q0 136 -91 211t-255 75h-525v-575z" />
<glyph horiz-adv-x="2289" d="M190 612v822h103v-822q0 -256 126.5 -398t346.5 -142t345.5 141.5t125.5 398.5v822h952v-95h-850v-538h703v-96h-703v-93q0 -153 -42.5 -274.5t-119.5 -200.5t-181.5 -120.5t-229.5 -41.5q-259 0 -417.5 166.5t-158.5 470.5z" />
<glyph horiz-adv-x="2580" d="M190 612v822h103v-822q0 -256 126.5 -398t346.5 -142t345.5 141.5t125.5 398.5v822h102v-615h924v615h102v-1434h-102v723h-924v-111q0 -153 -42.5 -274.5t-119.5 -200.5t-181.5 -120.5t-229.5 -41.5q-259 0 -417.5 166.5t-158.5 470.5z" />
<glyph horiz-adv-x="2336" d="M190 612v822h103v-822q0 -256 126.5 -398t346.5 -142t345.5 141.5t125.5 398.5v822h102v-631l719 631h144l-748 -658l862 -776h-153l-824 743v-131q0 -153 -42.5 -274.5t-119.5 -200.5t-181.5 -120.5t-229.5 -41.5q-259 0 -417.5 166.5t-158.5 470.5z" />
<glyph horiz-adv-x="2758" d="M190 612v822h103v-822q0 -256 126.5 -398t346.5 -142t345.5 141.5t125.5 398.5v822h104l551 -725l551 725h101v-1434h-103v1276l-516 -680h-65l-521 680v-664q0 -153 -42.5 -274.5t-119.5 -200.5t-181.5 -120.5t-229.5 -41.5q-259 0 -417.5 166.5t-158.5 470.5z" />
<glyph horiz-adv-x="2678" d="M213 0v1434h104l551 -725l551 725h604q190 0 296 -93t106 -254q0 -115 -51.5 -193t-145.5 -114q153 -23 239.5 -124t86.5 -259q0 -181 -122.5 -289t-340.5 -108h-674v1276l-516 -680h-65l-521 680v-1276h-102zM1520 94h555q178 0 273 81.5t95 232.5q0 150 -95 230.5 t-273 80.5h-555v-625zM1520 809h489q151 0 234.5 68.5t83.5 195.5t-83.5 196.5t-234.5 69.5h-489v-530z" />
<glyph horiz-adv-x="2611" d="M190 612v822h103v-822q0 -256 126.5 -398t346.5 -142t345.5 141.5t125.5 398.5v822h92l967 -1256v1256h100v-1434h-88l-969 1257v-645q0 -153 -42.5 -274.5t-119.5 -200.5t-181.5 -120.5t-229.5 -41.5q-259 0 -417.5 166.5t-158.5 470.5z" />
<glyph horiz-adv-x="2510" d="M213 0v1434h104l551 -725l551 725h961v-95h-860v-520h710v-96h-710v-629h893v-94h-996v1276l-516 -680h-65l-521 680v-1276h-102z" />
<glyph horiz-adv-x="1472" d="M211 731v92h1051v-92h-1051z" />
<glyph horiz-adv-x="1851" d="M211 731v92h1431v-92h-1431z" />
<glyph horiz-adv-x="976" d="M211 731v92h555v-92h-555z" />
<glyph horiz-adv-x="763" d="M203 -217v1868h479v-88h-383v-1692h383v-88h-479z" />
<glyph horiz-adv-x="763" d="M82 -129h381v1692h-381v88h477v-1868h-477v88z" />
<glyph horiz-adv-x="716" d="M113 676v82q37 4 65 16.5t44.5 35.5t26.5 45t14.5 58.5t5.5 61.5t1 67v342q0 128 70 197.5t195 69.5h100v-88h-84q-184 0 -184 -183v-360q0 -124 -26.5 -196.5t-107.5 -106.5q81 -34 107.5 -106.5t26.5 -196.5v-361q0 -182 184 -182h84v-88h-100q-125 0 -195 69t-70 197 v340q0 36 -0.5 57.5t-3.5 54t-9 52.5t-17.5 44.5t-28 38.5t-41.5 25.5t-57 14.5z" />
<glyph horiz-adv-x="716" d="M82 -129h84q184 0 184 182v361q0 125 26 197t107 106q-81 34 -107 106t-26 197v360q0 183 -184 183h-84v88h102q124 0 193 -69.5t69 -197.5v-342q0 -42 1 -67t5.5 -61t15 -58.5t27 -45.5t44.5 -35.5t65 -16.5v-82q-37 -4 -65 -17t-44.5 -36t-27 -45.5t-15 -59t-5.5 -62 t-1 -67.5v-340q0 -128 -69 -197t-193 -69h-102v88z" />
<glyph horiz-adv-x="1101" d="M102 313l342 404l-342 403h117l320 -375v-55l-320 -377h-117zM561 313l342 404l-342 403h117l319 -375v-55l-319 -377h-117z" />
<glyph horiz-adv-x="1099" d="M104 690v55l320 375h117l-342 -405l342 -402h-117zM563 690v55l318 375h118l-342 -405l342 -402h-118z" />
<glyph horiz-adv-x="643" d="M102 313l342 402l-342 405h117l320 -375v-55l-320 -377h-117z" />
<glyph horiz-adv-x="641" d="M104 690v55l320 375h117l-342 -405l342 -402h-117z" />
<glyph horiz-adv-x="722" d="M207 717q0 544 307 934h111q-67 -88 -119 -175.5t-101 -203.5t-75.5 -257.5t-26.5 -297.5q0 -523 322 -934h-111q-307 382 -307 934z" />
<glyph horiz-adv-x="722" d="M98 -217q322 411 322 934q0 156 -26.5 297.5t-75.5 257.5t-101 203.5t-119 175.5h111q307 -394 307 -934q0 -547 -307 -934h-111z" />
<glyph horiz-adv-x="546" d="M193 1358q0 34 23.5 58t57.5 24t58 -24t24 -58t-24 -58t-58 -24t-57.5 24t-23.5 58zM213 0l14 1006h92l15 -1006h-121z" />
<glyph horiz-adv-x="958" d="M66 365q0 76 31 143t85.5 116t120.5 85t143 59v238h97v-293q-67 -15 -131.5 -45t-120 -72t-89.5 -101.5t-34 -125.5q0 -128 95 -209.5t241 -81.5q186 0 350 123v-101q-66 -52 -160 -83t-200 -31q-177 0 -302.5 106t-125.5 273zM408 1358q0 34 23.5 58t57.5 24t58 -24 t24 -58t-24 -58t-58 -24t-57.5 24t-23.5 58z" />
<glyph horiz-adv-x="1925" d="M190 612v822h103v-822q0 -256 126.5 -398t346.5 -142t345.5 141.5t125.5 398.5v727h-512v95h1126v-95h-512v-727q0 -153 -42.5 -274.5t-119.5 -200.5t-181.5 -120.5t-229.5 -41.5q-259 0 -417.5 166.5t-158.5 470.5z" />
<glyph horiz-adv-x="1925" d="M74 1339v95h1126v-95h-512v-727q0 -257 125.5 -398.5t345.5 -141.5t346.5 142t126.5 398v822h103v-822q0 -304 -158.5 -470.5t-417.5 -166.5q-125 0 -229.5 41.5t-181.5 120.5t-119.5 200.5t-42.5 274.5v727h-512z" />
<glyph horiz-adv-x="1957" d="M213 0v1434h90l967 -1256v1161h-510v95h1124v-95h-512v-1339h-88l-969 1257v-1257h-102z" />
<glyph horiz-adv-x="1929" d="M74 1339v95h1126v-95h-512v-520h924v615h102v-1434h-102v723h-924v-723h-102v1339h-512z" />
<glyph horiz-adv-x="1927" d="M213 0v1434h102v-615h924v520h-512v95h1126v-95h-512v-1339h-102v723h-924v-723h-102z" />
<glyph horiz-adv-x="2162" d="M68 0l649 1442h94l588 -1309l575 1301h111l-637 -1434h-96l-189 418h-801l-188 -418h-106zM399 508h727l-362 801z" />
</font>
</defs>
</svg>
